Загрузить Adobe Flash Player
Как тут качать? :: Как встать на раздачу?

Скачать / Download torrent  
Хэш: fd83f39db35092b2095001ef221cb7fe53c6ab5b
Добавлен: 20 мая 2015 в 16:58:15
Категория: Мультфильмы
Размер: 399.22 MB
Проверил: АРХАНГЕЛ 20 мая 2015 в 16:58:15

Раздают: 39 Качают: 19

Последняя жена Синей Бороды / La dernière femme de Barbe Bleue (1996) WEBRip 720p

pic

Название: Последняя жена Синей Бороды
Оригинальное название: La dernière femme de Barbe Bleue

Год выхода: 1996
Страна: Франция, Украина / Borisfen-Lutece, Millimages
Жанр: мультфильм, короткометражка, для взрослых
Перевод: не требуется

Режиссер: Александр Бубнов

О фильме: Синяя Борода известен тем, что убивал своих жен. В этом мульте убийца избавившись от очередной супруги, решил обзавестись новой. Он вышел на улицу и хотел с кем-нибудь познакомиться, но все дамы игнорировали Бороду. Однако главному герою все же удалось познакомиться с одной милой девушкой. Он мгновенно на ней женился и привел в замок. Дома муженек открыл ей свою истинную сущность - я, мол, Синяя Борода! Но супруга не огорчилась - отлично! А я - Медуза Горгона! Аха-ха-ха!!!

pic pic pic pic
Качество: WEBRip 720p
Формат: MKV
Продолжительность: 00:13:06
Видео: AVC, 1280x912, 4000 Kbps
Звук: AC3, 2 ch, 256 Kbps

General
Unique ID : 214355206633152095540524439443546631490 (0xA1434FA57ED5924737E67AB6A71CED42)
Complete name : D:\ДИСК\04.МУЛЬТФИЛЬМЫ\Маньяк Синия борода\La dernière femme de Barbe Bleue (1996) WEBRip 720p.mkv
Format : Matroska
Format version : Version 2
File size : 399 MiB
Duration : 13mn 6s
Overall bit rate : 4 259 Kbps
Writing application : XviD4PSP 6.0 / 54.29.105
Writing library : XviD4PSP 6.0 / 54.29.105

Video
ID : 1
Format : AVC
Format/Info : Advanced Video Codec
Format profile : High@L4.1
Format settings, CABAC : Yes
Format settings, ReFrames : 7 frames
Codec ID : V_MPEG4/ISO/AVC
Duration : 13mn 6s
Bit rate : 4 000 Kbps
Width : 1 280 pixels
Height : 912 pixels
Display aspect ratio : 4:3
Frame rate mode : Constant
Frame rate : 29.970 fps
Color space : YUV
Chroma subsampling : 4:2:0
Bit depth : 8 bits
Scan type : Progressive
Bits/(Pixel*Frame) : 0.114
Stream size : 367 MiB (92%)
Writing library : x264 core 128 r2216M 198a7ea
Encoding settings : cabac=1 / ref=8 / deblock=1:-3:-3 / analyse=0x3:0x133 / me=umh / subme=11 / psy=1 / psy_rd=1.00:0.20 / mixed_ref=1 / me_range=24 / chroma_me=1 / trellis=2 / 8x8dct=1 / cqm=0 / deadzone=21,11 / fast_pskip=1 / chroma_qp_offset=-3 / threads=4 / lookahead_threads=1 / sliced_threads=0 / nr=0 / decimate=1 / interlaced=0 / bluray_compat=0 / constrained_intra=0 / bframes=8 / b_pyramid=1 / b_adapt=2 / b_bias=0 / direct=3 / weightb=1 / open_gop=0 / weightp=2 / keyint=290 / keyint_min=29 / scenecut=40 / intra_refresh=0 / rc_lookahead=40 / rc=2pass / mbtree=1 / bitrate=4000 / ratetol=1.0 / qcomp=0.60 / qpmin=0 / qpmax=69 / qpstep=8 / cplxblur=20.0 / qblur=0.5 / ip_ratio=1.40 / aq=1:1.00
Default : Yes
Forced : No
HANDLER_NAME : VideoHandler

Audio
ID : 2
Format : AC-3
Format/Info : Audio Coding 3
Mode extension : CM (complete main)
Format settings, Endianness : Big
Codec ID : A_AC3
Duration : 13mn 6s
Bit rate mode : Constant
Bit rate : 256 Kbps
Channel(s) : 2 channels
Channel positions : Front: L R
Sampling rate : 44.1 KHz
Bit depth : 16 bits
Compression mode : Lossy
Delay relative to video : 29ms
Stream size : 24.0 MiB (6%)
Language : Russian
Default : Yes
Forced : No
HANDLER_NAME : SoundHandler



pic


Информация
Информация Скриншоты Пиры Скачавшие Список файлов
Залил Оценка Просмотров Скачан Файлов
АРХАНГЕЛ 0 491341

Теги
мультфильм, короткометражка, для взрослых

Похожие раздачи

Поиск не дал результатов.Больше похожих раздач →

Список комментариев
Комментарии отсутствуют

Добавить комментарий
Внимание
Гости не могут оставлять комментарии, авторизуйтесь.

Панель навигации

ПОПУЛЯРНЫЕ РАЗДАЧИ
скачать торрент Ледокол (2016) WEB-DLRip | iTunesскачать торрент Доктор Стрэндж (2016) TS
скачать торрент Ледокол (2016) WEB-DL 1080p | iTunesскачать торрент Дуэлянт (2016) CAMRip
скачать торрент Отряд самоубийц (2016) BDRip 1080p | Расширeнная версия | iTunesскачать торрент Джейсон Борн (2016) HDTV 720p | Чистый звук
скачать торрент Первый мститель: Противостояние (2016) BDRip | IMAX Edition | iTunesскачать торрент Тарзан. Легенда (2016) HDRip | iTunes
скачать торрент Полтора шпиона (2016) BDRip 1080p | Лицензияскачать торрент Джейсон Борн (2016) HDTV 1080p | Чистый звук

Будь с нами!


Наши друзья 



Информация, расположенная на данном сервере, предназначена исключительно для частного использования и не может быть загружена/перенесена на другой компьютер. Ни владелец сайта, ни хостинг-провайдер, ни любые другие физические или юридические лица не могут нести никакой отвественностиза любое использование материалов данного сайта.

© 2012-2016 TRACK.KG.