Загрузить Adobe Flash Player
Как тут качать? :: Как встать на раздачу?

Скачать / Download torrent  
Хэш: 0726b7230556ff996a6d0efa8615f6a1fdeb3013
Добавлен: 23 апреля 2015 в 21:38:56
Категория: Мультфильмы
Размер: 1.52 GB
Проверил: АРХАНГЕЛ 23 апреля 2015 в 21:38:56

Раздают: 64 Качают: 26

Три разбойника / Die Drei Räuber (2007) DVDRip-AVC | D | Лицензия

pic

Название: Три разбойника
Оригинальное название: Die Drei Rauber

Год выхода: 2007
Страна: Германия / Animation X, Animation X Gesellschaft zur Produktion von Animationsfilmen mbH, Medienfonds GFP, X-Filme Creative Pool
Жанр: мультфильм, комедия, криминал, семейный
Перевод: Дубляж Лицензия

Режиссер: Хайо Фрайтаг / Hayo Fraytag
В ролях: Хоаким Крол, Чарли Хюбнер, Катарина Тальбах, Елена Крейл, Максимилиан Рока Юнгфер, Эрвин Ледер...

О фильме: Жили-были три безжалостных разбойника, которые бродили по темным лесам, устраивали засады и грабили невинных путешественников. А Злая Тётка живёт и содержит высоко в горах приют, где эксплуатирует детский труд. Сироты день и ночь собирают для нее сахарную свеклу, а Злая Тетка объедается сладостями. Тиффани в приют не хочет, поэтому, когда на ее карету нападают разбойники, выдает себя за индийскую принцессу, сдается в плен и обещает разбойникам сказочные богатства в качестве выкупа.
Конечно, ее обман скоро раскроется, и Тиффани отправится в приют. Но… Разбойникам так понравилось жить с Тиффани, что они решают вернуть ее, а заодно освобождают всех детей приюта от гнета злостной хозяйки...

pic pic pic


Качество: DVDRip-AVC
Формат: MKV
Продолжительность: 01:15:00
Видео: AVC, 1024x576, 1986 Kbps
Звук: Русский / Немецкий: AC3 Dolby Digital, 3/2 (L,C,R,l,r) + LFE ch, ~448 kbps

General
Unique ID : 73845314165445099433705409627496537125 (0x378E17160FE7A62489EFE4EBB9165C25)
Complete name : G:\ДИСК 2\04.МУЛЬТФИЛЬМЫ\Три разбойника Die Drei Rauber (2007)\Die Drei Rauber (2007) DVDRip-AVC_D.mkv
Format : Matroska
Format version : Version 2
File size : 1.52 GiB
Duration : 1h 15mn
Overall bit rate : 2 901 Kbps
Movie name : Release by АРХАНГЕЛ
Encoded date : UTC 2015-04-23 12:24:37
Writing application : XviD4PSP 6.0 / 54.29.105
Writing library : XviD4PSP 6.0 / 54.29.105

Video
ID : 1
Format : AVC
Format/Info : Advanced Video Codec
Format profile : High@L4.1
Format settings, CABAC : Yes
Format settings, ReFrames : 7 frames
Codec ID : V_MPEG4/ISO/AVC
Duration : 1h 15mn
Bit rate : 2 000 Kbps
Width : 1 024 pixels
Height : 576 pixels
Display aspect ratio : 16:9
Frame rate mode : Constant
Frame rate : 25.000 fps
Color space : YUV
Chroma subsampling : 4:2:0
Bit depth : 8 bits
Scan type : Progressive
Bits/(Pixel*Frame) : 0.136
Stream size : 1.02 GiB (67%)
Writing library : x264 core 128 r2216M 198a7ea
Encoding settings : cabac=1 / ref=8 / deblock=1:-3:-3 / analyse=0x3:0x133 / me=umh / subme=8 / psy=0 / mixed_ref=1 / me_range=32 / chroma_me=1 / trellis=2 / 8x8dct=1 / cqm=0 / deadzone=21,11 / fast_pskip=1 / chroma_qp_offset=0 / threads=5 / lookahead_threads=1 / sliced_threads=0 / nr=0 / decimate=1 / interlaced=0 / bluray_compat=0 / constrained_intra=0 / bframes=8 / b_pyramid=1 / b_adapt=0 / b_bias=0 / direct=3 / weightb=1 / open_gop=0 / weightp=0 / keyint=250 / keyint_min=23 / scenecut=40 / intra_refresh=0 / rc_lookahead=40 / rc=2pass / mbtree=1 / bitrate=2000 / ratetol=1.0 / qcomp=0.60 / qpmin=0 / qpmax=69 / qpstep=4 / cplxblur=20.0 / qblur=0.5 / ip_ratio=1.40 / aq=1:1.00
Language : English
Default : Yes
Forced : No
_STATISTICS_TAGS : BPS DURATION NUMBER_OF_FRAMES NUMBER_OF_BYTES
DURATION : 01:15:00.240000000
NUMBER_OF_FRAMES : 112506
NUMBER_OF_BYTES : 1119492287
_STATISTICS_WRITING_APP : mkvmerge v7.7.0 ('Six Voices') 64bit built on Feb 28 2015 23:39:33
_STATISTICS_WRITING_DATE_UTC : 2015-04-23 12:24:37

Audio #1
ID : 2
Format : AC-3
Format/Info : Audio Coding 3
Mode extension : CM (complete main)
Format settings, Endianness : Big
Codec ID : A_AC3
Duration : 1h 15mn
Bit rate mode : Constant
Bit rate : 448 Kbps
Channel(s) : 6 channels
Channel positions : Front: L C R, Side: L R, LFE
Sampling rate : 48.0 KHz
Bit depth : 16 bits
Compression mode : Lossy
Delay relative to video : 27ms
Stream size : 240 MiB (15%)
Title : Dub
Language : Russian
Default : Yes
Forced : No
_STATISTICS_TAGS : BPS DURATION NUMBER_OF_FRAMES NUMBER_OF_BYTES
DURATION : 01:15:00.384000000
NUMBER_OF_FRAMES : 140637
NUMBER_OF_BYTES : 252021504
_STATISTICS_WRITING_APP : mkvmerge v7.7.0 ('Six Voices') 64bit built on Feb 28 2015 23:39:33
_STATISTICS_WRITING_DATE_UTC : 2015-04-23 12:24:37

Audio #2
ID : 3
Format : AC-3
Format/Info : Audio Coding 3
Mode extension : CM (complete main)
Format settings, Endianness : Big
Codec ID : A_AC3
Duration : 1h 15mn
Bit rate mode : Constant
Bit rate : 448 Kbps
Channel(s) : 6 channels
Channel positions : Front: L C R, Side: L R, LFE
Sampling rate : 48.0 KHz
Bit depth : 16 bits
Compression mode : Lossy
Delay relative to video : 27ms
Stream size : 240 MiB (15%)
Title : Original
Language : German
Default : Yes
Forced : No
_STATISTICS_TAGS : BPS DURATION NUMBER_OF_FRAMES NUMBER_OF_BYTES
DURATION : 01:15:00.384000000
NUMBER_OF_FRAMES : 140637
NUMBER_OF_BYTES : 252021504
_STATISTICS_WRITING_APP : mkvmerge v7.7.0 ('Six Voices') 64bit built on Feb 28 2015 23:39:33
_STATISTICS_WRITING_DATE_UTC : 2015-04-23 12:24:37



pic


Информация
Информация Скриншоты Пиры Скачавшие Список файлов
Залил Оценка Просмотров Скачан Файлов
АРХАНГЕЛ 0 494541

Теги
мультфильм, комедия, криминал, семейный

Похожие раздачи

Три разбойника / Die Drei Räuber (2007) HDRip | Лицензия 1.37 GB

Больше похожих раздач →

Список комментариев
Комментарии отсутствуют

Добавить комментарий
Внимание
Гости не могут оставлять комментарии, авторизуйтесь.

Панель навигации

ПОПУЛЯРНЫЕ РАЗДАЧИ
скачать торрент Ледокол (2016) WEB-DLRip | iTunesскачать торрент Доктор Стрэндж (2016) TS
скачать торрент Ледокол (2016) WEB-DL 1080p | iTunesскачать торрент Дуэлянт (2016) CAMRip
скачать торрент Отряд самоубийц (2016) BDRip 1080p | Расширeнная версия | iTunesскачать торрент Джейсон Борн (2016) HDTV 720p | Чистый звук
скачать торрент Первый мститель: Противостояние (2016) BDRip | IMAX Edition | iTunesскачать торрент Тарзан. Легенда (2016) HDRip | iTunes
скачать торрент Dark Souls 3: Deluxe Edition (2016) PC | RePack от xatabскачать торрент Люди Икс: Апокалипсис / X-Men: Apocalypse (2016) BDRip 720p | Лицензия

Будь с нами!


Наши друзья 



Информация, расположенная на данном сервере, предназначена исключительно для частного использования и не может быть загружена/перенесена на другой компьютер. Ни владелец сайта, ни хостинг-провайдер, ни любые другие физические или юридические лица не могут нести никакой отвественностиза любое использование материалов данного сайта.

© 2012-2016 TRACK.KG.