Загрузить Adobe Flash Player
Как тут качать? :: Как встать на раздачу?

Скачать / Download torrent  
Хэш: 4c8031b4cab931723e85d3264f3bbe45e42b3ac4
Добавлен: 18 апреля 2015 в 13:37:12
Категория: Фильмы » Зарубежное кино » Боевики
Размер: 2.16 GB
Проверил: АРХАНГЕЛ 18 апреля 2015 в 13:37:12

Раздают: 414 Качают: 66

Становление легенды / Rise of the Legend / Huang Feihong Zhi Yingxiong You Meng (2014) HDRip-AVC | L2

pic

Название: Становление легенды
Оригинальное название: Rise of the Legend / Huang Feihong Zhi Yingxiong You Meng

Год выхода: 2014
Страна: Гонконг, Китай / EDKO Film Ltd., Edko Films, Irresistible Films, Universal Pictures International Production (UPIP)
Жанр: боевик, драма, биография
Перевод: Любительский (двухголосый, закадровый) группа "GREEN TEA" (Ольга Гринтиева и Дмитрий Познанский) (Перевод: Алексей Хорошавин)

Режиссер: Сянь-ян Чоу / Hsien-yang Chou
В ролях: Саммо Кам-Бо Хунг, Эдди Пэн, Анджела Бейби, Луодин Ван, Цзин Божань, Чо-Лам Вонг, Цзинь Чжан, Куин Жунжи, Байрон Манн и др.

О фильме: Фильм повествует о великом мастере боевых искусств и китайской медицины Вон Фэйхуне. Он жил в Китае, в эпоху династии Цин. Вон Фэйхун и прославился на весь Китай как «Робин Гуд XX века». О нем снято более 80-ти фильмов, самые знаменитые из которых: "Пьяный мастер" и "Пьяный мастер 2", где Вон Фэйхуна сыграл Джеки Чан, а так же "Однажды в Китае" и "Железный петух против сколопендры", где роль мастера исполнил Джет Ли.
Этот фильм рассказывает о самом начале пути Вон Фэйхуна. Его, молодого и смелого бойца, замечает главарь одной из двух крупнейших банд, контролирующих власть в провинции ГуанДун. Босс предлагает юноше вступить в его банду, однако, он не знает, что этим лишь помогает Вон Фэйхуну осуществить свой план. Много лет назад членами этой банды был убит отец мастера, и он поклялся во что бы то ни стало отомстить.

pic pic pic


Качество: HDRip-AVC
Формат: MKV
Продолжительность: 02:11:27
Видео: AVC, 1024x432, 2000 Kbps
Звук: Русский: AC3, 2 ch, 192 Kbps / Китайский: AC3, 2 ch, 160 Kbps
Субтитры: Английские

General
Unique ID : 243789274827546139670097483316114316695 (0xB7681B4060CC06ADA375677C8F1D5D97)
Complete name : G:\ДИСК 2\01.ФИЛЬМЫ\Становление легенды Rise of the Legend Huang Feihong Zhi Yingxiong You Meng (2014)\Huang Feihong Zhi Yingxiong You Meng (2014) HDRip-AVC L2.mkv
Format : Matroska
Format version : Version 4 / Version 2
File size : 2.16 GiB
Duration : 2h 11mn
Overall bit rate : 2 354 Kbps
Encoded date : UTC 2015-04-15 14:09:19
Writing application : mkvmerge v7.7.0 ('Six Voices') 64bit built on Feb 28 2015 23:39:33
Writing library : XviD4PSP 6.0 / 54.29.105
DURATION : 02:06:47.875000000
NUMBER_OF_FRAMES : 1189
NUMBER_OF_BYTES : 32936
_STATISTICS_WRITING_APP : mkvmerge v7.7.0 ('Six Voices') 64bit built on Feb 28 2015 23:39:33
_STATISTICS_WRITING_DATE_UTC : 2015-04-18 06:59:53
_STATISTICS_TAGS : BPS DURATION NUMBER_OF_FRAMES NUMBER_OF_BYTES

Video
ID : 1
Format : AVC
Format/Info : Advanced Video Codec
Format profile : High@L4.1
Format settings, CABAC : Yes
Format settings, ReFrames : 7 frames
Codec ID : V_MPEG4/ISO/AVC
Duration : 2h 11mn
Bit rate : 2 000 Kbps
Width : 1 024 pixels
Height : 432 pixels
Display aspect ratio : 2.40:1
Frame rate mode : Constant
Frame rate : 24.000 fps
Color space : YUV
Chroma subsampling : 4:2:0
Bit depth : 8 bits
Scan type : Progressive
Bits/(Pixel*Frame) : 0.188
Stream size : 1.80 GiB (83%)
Writing library : x264 core 128 r2216M 198a7ea
Encoding settings : cabac=1 / ref=8 / deblock=1:-3:-3 / analyse=0x3:0x133 / me=umh / subme=8 / psy=0 / mixed_ref=1 / me_range=24 / chroma_me=1 / trellis=2 / 8x8dct=1 / cqm=0 / deadzone=21,11 / fast_pskip=1 / chroma_qp_offset=-2 / threads=4 / lookahead_threads=1 / sliced_threads=0 / nr=0 / decimate=1 / interlaced=0 / bluray_compat=0 / constrained_intra=0 / bframes=6 / b_pyramid=1 / b_adapt=0 / b_bias=0 / direct=3 / weightb=1 / open_gop=0 / weightp=0 / keyint=240 / keyint_min=23 / scenecut=40 / intra_refresh=0 / rc_lookahead=40 / rc=2pass / mbtree=1 / bitrate=2000 / ratetol=1.0 / qcomp=0.60 / qpmin=0 / qpmax=69 / qpstep=4 / cplxblur=20.0 / qblur=0.5 / ip_ratio=1.40 / aq=1:1.00
Default : Yes
Forced : No
DURATION : 02:11:26.500000000
NUMBER_OF_FRAMES : 189276
NUMBER_OF_BYTES : 1971996220
_STATISTICS_WRITING_APP : mkvmerge v7.7.0 ('Six Voices') 64bit built on Feb 28 2015 23:39:33
_STATISTICS_WRITING_DATE_UTC : 2015-04-18 06:59:53
_STATISTICS_TAGS : BPS DURATION NUMBER_OF_FRAMES NUMBER_OF_BYTES

Audio #1
ID : 2
Format : AC-3
Format/Info : Audio Coding 3
Mode extension : CM (complete main)
Format settings, Endianness : Big
Codec ID : A_AC3
Duration : 2h 11mn
Bit rate mode : Constant
Bit rate : 192 Kbps
Channel(s) : 2 channels
Channel positions : Front: L R
Sampling rate : 48.0 KHz
Bit depth : 16 bits
Compression mode : Lossy
Delay relative to video : 27ms
Stream size : 181 MiB (8%)
Default : Yes
Forced : No
DURATION : 02:11:26.304000000
NUMBER_OF_FRAMES : 246447
NUMBER_OF_BYTES : 189271296
_STATISTICS_WRITING_APP : mkvmerge v7.7.0 ('Six Voices') 64bit built on Feb 28 2015 23:39:33
_STATISTICS_WRITING_DATE_UTC : 2015-04-18 06:59:53
_STATISTICS_TAGS : BPS DURATION NUMBER_OF_FRAMES NUMBER_OF_BYTES

Audio #2
ID : 3
Format : AC-3
Format/Info : Audio Coding 3
Mode extension : CM (complete main)
Format settings, Endianness : Big
Codec ID : A_AC3
Duration : 2h 11mn
Bit rate mode : Constant
Bit rate : 160 Kbps
Channel(s) : 2 channels
Channel positions : Front: L R
Sampling rate : 48.0 KHz
Bit depth : 16 bits
Compression mode : Lossy
Stream size : 150 MiB (7%)
Default : No
Forced : No

Text
ID : 4
Format : UTF-8
Codec ID : S_TEXT/UTF8
Codec ID/Info : UTF-8 Plain Text
Default : Yes
Forced : No



pic


Информация
Информация Скриншоты Пиры Скачавшие Список файлов
Залил Оценка Просмотров Скачан Файлов
АРХАНГЕЛ 0 520581

Теги
боевик, драма, биография

Похожие раздачи

Становление легенды / Rise of the Legend / Huang Feihong Zhi Yingxiong You Meng (2014) HDRip | L2 2.17 GB

Больше похожих раздач →

Список комментариев
Комментарии отсутствуют

Добавить комментарий
Внимание
Гости не могут оставлять комментарии, авторизуйтесь.

Панель навигации

ПОПУЛЯРНЫЕ РАЗДАЧИ
скачать торрент Ледокол (2016) WEB-DLRip | iTunesскачать торрент Доктор Стрэндж (2016) TS
скачать торрент Ледокол (2016) WEB-DL 1080p | iTunesскачать торрент Дуэлянт (2016) CAMRip
скачать торрент Отряд самоубийц (2016) BDRip 1080p | Расширeнная версия | iTunesскачать торрент Джейсон Борн (2016) HDTV 720p | Чистый звук
скачать торрент Первый мститель: Противостояние (2016) BDRip | IMAX Edition | iTunesскачать торрент Тарзан. Легенда (2016) HDRip | iTunes
скачать торрент Dark Souls 3: Deluxe Edition (2016) PC | RePack от xatabскачать торрент Люди Икс: Апокалипсис / X-Men: Apocalypse (2016) BDRip 720p | Лицензия

Будь с нами!


Наши друзья 



Информация, расположенная на данном сервере, предназначена исключительно для частного использования и не может быть загружена/перенесена на другой компьютер. Ни владелец сайта, ни хостинг-провайдер, ни любые другие физические или юридические лица не могут нести никакой отвественностиза любое использование материалов данного сайта.

© 2012-2016 TRACK.KG.