Загрузить Adobe Flash Player
Как тут качать? :: Как встать на раздачу?

Скачать / Download torrent  
Хэш: d2713ea12fb599a6286cb1fb21273c6047782b0a
Добавлен: 16 апреля 2015 в 23:29:35
Категория: Мультфильмы
Размер: 0.99 GB
Проверил: АРХАНГЕЛ 16 апреля 2015 в 23:29:35

Раздают: 45 Качают: 57

Лего супергерои DC: Лига справедливости против Лиги Бизарро / Lego DC Comics Super Heroes: Justice League vs. Bizarro League (20

pic

Название: Лего супергерои DC: Лига справедливости против Лиги Бизарро
Оригинальное название: Lego DC Comics Super Heroes: Justice League vs. Bizarro

Год выхода: 2015
Страна: США / Warner Bros. Animation
Жанр: мультфильм, боевик, комедия, приключения
Перевод: Любительский (Многоголосый закадровый) RuDub TV

Режиссер: Брэндон Виетти
В ролях: Дидрих Бадер, Трой Бэйкер, Джон Ди Маджио, Том Кенни, Фил Моррис, Нолан Норт, Хари Пэйтон, Кевин Майкл Ричардсон, Джеймс Арнольд Тейлор, Тони Тодд

О фильме: Фантастический мультфильм, где роли главных персонажей играют фигурки мира Лего, расскажет о новой схватке Лиги Справедливости. Они будут противостоять Дарксайду. Этот злодей решил превратить планету Земля в куб. Но Дарксайд так же навредил миру, где проживала Лига Бизарро, в команде которой все герои, являются полной противоположностью Лиги Справедливости.

pic pic pic


Качество: BDRip-AVC
Формат: MKV
Продолжительность: 00:48:43
Видео: AVC, 1024x576, 2000 Kbps
Звук: Русский / Английский: AC3, 6 ch, 448 Kbps
Субтитры: русские, английские

General
Unique ID : 193756347272805601715815262501110548971 (0x91C41D7807F47DA59ABC8B47905009EB)
Complete name : G:\ДИСК 2\04.МУЛЬТФИЛЬМЫ\Лего супергерои DC Лига справедливости против Лиги Бизарро Lego DC Comics Super Heroes Justice League vs. Bizarro League (2015)\Lego DC Comics Super Heroes Justice League vs. Bizarro League.2015.BDRip-AVC (1).mkv
Format : Matroska
Format version : Version 4 / Version 2
File size : 1 009 MiB
Duration : 48mn 43s
Overall bit rate : 2 895 Kbps
Movie name : Lego DC Comics Super Heroes: Justice League vs. Bizarro League.2015.BDRemux 1080p -Azureus-
Encoded date : UTC 2015-04-16 16:19:02
Writing application : mkvmerge v7.7.0 ('Six Voices') 64bit built on Feb 28 2015 23:39:33
Writing library : libebml v1.3.1 + libmatroska v1.4.2
_STATISTICS_WRITING_APP : mkvmerge v7.7.0 ('Six Voices') 64bit built on Feb 28 2015 23:39:33
_STATISTICS_WRITING_DATE_UTC : 2015-04-16 16:19:02
_STATISTICS_TAGS : BPS DURATION NUMBER_OF_FRAMES NUMBER_OF_BYTES
DURATION : 00:48:02.212000000
NUMBER_OF_FRAMES : 762
NUMBER_OF_BYTES : 21791

Video
ID : 1
Format : AVC
Format/Info : Advanced Video Codec
Format profile : High@L4.1
Format settings, CABAC : Yes
Format settings, ReFrames : 7 frames
Codec ID : V_MPEG4/ISO/AVC
Duration : 48mn 44s
Bit rate : 2 000 Kbps
Width : 1 024 pixels
Height : 576 pixels
Display aspect ratio : 16:9
Frame rate mode : Constant
Frame rate : 23.976 fps
Color space : YUV
Chroma subsampling : 4:2:0
Bit depth : 8 bits
Scan type : Progressive
Bits/(Pixel*Frame) : 0.141
Stream size : 677 MiB (67%)
Writing library : x264 core 128 r2216M 198a7ea
Encoding settings : cabac=1 / ref=8 / deblock=1:-3:-3 / analyse=0x3:0x133 / me=umh / subme=8 / psy=0 / mixed_ref=1 / me_range=24 / chroma_me=1 / trellis=2 / 8x8dct=1 / cqm=0 / deadzone=21,11 / fast_pskip=1 / chroma_qp_offset=-2 / threads=4 / lookahead_threads=1 / sliced_threads=0 / nr=0 / decimate=1 / interlaced=0 / bluray_compat=0 / constrained_intra=0 / bframes=6 / b_pyramid=1 / b_adapt=0 / b_bias=0 / direct=3 / weightb=1 / open_gop=0 / weightp=0 / keyint=240 / keyint_min=23 / scenecut=40 / intra_refresh=0 / rc_lookahead=40 / rc=2pass / mbtree=1 / bitrate=2000 / ratetol=1.0 / qcomp=0.60 / qpmin=0 / qpmax=69 / qpstep=4 / cplxblur=20.0 / qblur=0.5 / ip_ratio=1.40 / aq=1:1.00
Language : English
Default : Yes
Forced : No
DURATION : 00:48:42.920000000
NUMBER_OF_FRAMES : 70080
NUMBER_OF_BYTES : 729722410
_STATISTICS_WRITING_APP : mkvmerge v7.7.0 ('Six Voices') 64bit built on Feb 28 2015 23:39:33
_STATISTICS_WRITING_DATE_UTC : 2015-04-16 16:19:02
_STATISTICS_TAGS : BPS DURATION NUMBER_OF_FRAMES NUMBER_OF_BYTES

Audio #1
ID : 2
Format : AC-3
Format/Info : Audio Coding 3
Mode extension : CM (complete main)
Format settings, Endianness : Big
Codec ID : A_AC3
Duration : 48mn 43s
Bit rate mode : Constant
Bit rate : 448 Kbps
Channel(s) : 6 channels
Channel positions : Front: L C R, Side: L R, LFE
Sampling rate : 48.0 KHz
Bit depth : 16 bits
Compression mode : Lossy
Delay relative to video : 27ms
Stream size : 156 MiB (15%)
Title : MVO - RuDub TV
Language : Russian
Default : Yes
Forced : No
DURATION : 00:48:43.968000000
NUMBER_OF_FRAMES : 91374
NUMBER_OF_BYTES : 163742208
_STATISTICS_WRITING_APP : mkvmerge v7.7.0 ('Six Voices') 64bit built on Feb 28 2015 23:39:33
_STATISTICS_WRITING_DATE_UTC : 2015-04-16 16:19:02
_STATISTICS_TAGS : BPS DURATION NUMBER_OF_FRAMES NUMBER_OF_BYTES

Audio #2
ID : 3
Format : AC-3
Format/Info : Audio Coding 3
Mode extension : CM (complete main)
Format settings, Endianness : Big
Codec ID : A_AC3
Duration : 48mn 43s
Bit rate mode : Constant
Bit rate : 448 Kbps
Channel(s) : 6 channels
Channel positions : Front: L C R, Side: L R, LFE
Sampling rate : 48.0 KHz
Bit depth : 16 bits
Compression mode : Lossy
Delay relative to video : 27ms
Stream size : 156 MiB (15%)
Title : ENG
Language : English
Default : No
Forced : No
DURATION : 00:48:43.936000000
NUMBER_OF_FRAMES : 91373
NUMBER_OF_BYTES : 163740416
_STATISTICS_WRITING_APP : mkvmerge v7.7.0 ('Six Voices') 64bit built on Feb 28 2015 23:39:33
_STATISTICS_WRITING_DATE_UTC : 2015-04-16 16:19:02
_STATISTICS_TAGS : BPS DURATION NUMBER_OF_FRAMES NUMBER_OF_BYTES

Text #1
ID : 4
Format : UTF-8
Codec ID : S_TEXT/UTF8
Codec ID/Info : UTF-8 Plain Text
Title : Rus Sub - full
Language : Russian
Default : No
Forced : No

Text #2
ID : 5
Format : UTF-8
Codec ID : S_TEXT/UTF8
Codec ID/Info : UTF-8 Plain Text
Title : Eng Sub - SDH
Language : English
Default : No
Forced : No

Menu
00:00:00.000 : en:00:00:00.000
00:09:46.169 : en:00:09:46.169
00:19:46.602 : en:00:19:46.602
00:29:24.096 : en:00:29:24.096
00:39:10.765 : en:00:39:10.765
00:45:57.380 : en:00:45:57.380



pic


Информация
Информация Скриншоты Пиры Скачавшие Список файлов
Залил Оценка Просмотров Скачан Файлов
АРХАНГЕЛ 0 1015571

Теги
мультфильм, боевик, комедия, приключения

Похожие раздачи

Поиск не дал результатов.Больше похожих раздач →

Список комментариев
Комментарии отсутствуют

Добавить комментарий
Внимание
Гости не могут оставлять комментарии, авторизуйтесь.

Панель навигации

ПОПУЛЯРНЫЕ РАЗДАЧИ
скачать торрент Пассажиры (2016) TSскачать торрент Доктор Стрэндж (2016) TS
скачать торрент Отряд самоубийц (2016) BDRip 1080p | Расширeнная версия | iTunesскачать торрент Плохой Санта 2 (2016) WEB-DLRip | iTunes
скачать торрент Первый мститель: Противостояние (2016) BDRip | IMAX Edition | iTunesскачать торрент Джейсон Борн (2016) HDTV 1080p | Чистый звук
скачать торрент Любовь не по размеру (2016) BDRip | Лицензияскачать торрент Глубоководный горизонт (2016) HDRip | iTunes
скачать торрент Волки и овцы: бе-е-е-зумное превращение (2016) WEB-DLRip | Лицензияскачать торрент Голограмма для короля (2016) HDRip | Лицензия

Будь с нами!


Наши друзья 



Информация, расположенная на данном сервере, предназначена исключительно для частного использования и не может быть загружена/перенесена на другой компьютер. Ни владелец сайта, ни хостинг-провайдер, ни любые другие физические или юридические лица не могут нести никакой отвественностиза любое использование материалов данного сайта.

© 2012-2017 TRACK.KG.