Загрузить Adobe Flash Player
Как тут качать? :: Как встать на раздачу?

Скачать / Download torrent  
Хэш: d064a849940ff67753534d4ee035cf35ab385575
Добавлен: 14 апреля 2015 в 21:33:44
Категория: Мультфильмы
Размер: 1.62 GB
Проверил: АРХАНГЕЛ 14 апреля 2015 в 21:28:14

Раздают: 129 Качают: 24

Бэтмен против Робина / Batman vs. Robin (2015) HDRip-AVC | L1

pic

Название: Бэтмен против Робина
Оригинальное название: Batman vs. Robin

Год выхода: 2015
Страна: США / DC Comics, DC Entertainment
Жанр: мультфильм, боевик, приключения
Перевод: Любительский (одноголосый) Павел Морозов aka PashaUP (Перевод: Dakota Family Translators)

Режиссер: Джей Олива
В ролях: Дэвид МакКаллум, Джереми Систо, Джейсон О’Мара, Грэй Гриффин, Кевин Конрой, Шон Маэр, Робин Аткин Даунс, «Странный Эл» Янкович, Питер Онорати, Камар де лос Рейес

О фильме: Новый мультфильм в стиле комиксов снова вышел на экраны. На сей раз, мы увидим ту же историю Бэтмена и его родного города. В Готэме всегда было много беззакония и бандитов, но теперь отважному спасителю помогает небольшой, но смелый Робин. Сюжет фильма будет вращаться вокруг секретного сообщества, возникшего на рассвете Готэма, которое похищало детей и воспитывало из них ассасинов...

pic pic pic


Качество: HDRip-AVC
Формат: MKV
Продолжительность: 01:20:00
Видео: AVC, 1024x576, 2000 Kbps
Звук: Русский, английский (AC3, 6 ch, 448 Кбит/с)
Субтитры: русские (.srt), английские (.srt)

General
Unique ID : 191848981273366064721480424979080425588 (0x9054C510875146D981F77ED209F43074)
Complete name : G:\ДИСК 2\04.МУЛЬТФИЛЬМЫ\Бэтмен против Робина Batman vs. Robin (2015)\Batman vs. Robin (2015) HDRip-AVC.mkv
Format : Matroska
Format version : Version 4 / Version 2
File size : 1.62 GiB
Duration : 1h 20mn
Overall bit rate : 2 898 Kbps
Movie name : - RARBG -
Encoded date : UTC 2015-04-14 10:28:07
Writing application : mkvmerge v7.7.0 ('Six Voices') 64bit built on Feb 28 2015 23:39:33
Writing library : libebml v1.3.1 + libmatroska v1.4.2
DURATION : 01:15:43.210000000
NUMBER_OF_FRAMES : 741
NUMBER_OF_BYTES : 25370
_STATISTICS_WRITING_APP : mkvmerge v7.7.0 ('Six Voices') 64bit built on Feb 28 2015 23:39:33
_STATISTICS_WRITING_DATE_UTC : 2015-04-14 10:28:07
_STATISTICS_TAGS : BPS DURATION NUMBER_OF_FRAMES NUMBER_OF_BYTES

Video
ID : 1
Format : AVC
Format/Info : Advanced Video Codec
Format profile : High@L4.1
Format settings, CABAC : Yes
Format settings, ReFrames : 7 frames
Codec ID : V_MPEG4/ISO/AVC
Duration : 1h 20mn
Bit rate : 2 000 Kbps
Width : 1 024 pixels
Height : 576 pixels
Display aspect ratio : 16:9
Frame rate mode : Constant
Frame rate : 23.976 fps
Color space : YUV
Chroma subsampling : 4:2:0
Bit depth : 8 bits
Scan type : Progressive
Bits/(Pixel*Frame) : 0.141
Stream size : 1.09 GiB (67%)
Title : Release by ARHANGEL
Writing library : x264 core 128 r2216M 198a7ea
Encoding settings : cabac=1 / ref=8 / deblock=1:-3:-3 / analyse=0x3:0x133 / me=umh / subme=8 / psy=0 / mixed_ref=1 / me_range=24 / chroma_me=1 / trellis=2 / 8x8dct=1 / cqm=0 / deadzone=21,11 / fast_pskip=1 / chroma_qp_offset=-2 / threads=4 / lookahead_threads=1 / sliced_threads=0 / nr=0 / decimate=1 / interlaced=0 / bluray_compat=0 / constrained_intra=0 / bframes=6 / b_pyramid=1 / b_adapt=0 / b_bias=0 / direct=3 / weightb=1 / open_gop=0 / weightp=0 / keyint=240 / keyint_min=23 / scenecut=40 / intra_refresh=0 / rc_lookahead=40 / rc=2pass / mbtree=1 / bitrate=2000 / ratetol=1.0 / qcomp=0.60 / qpmin=0 / qpmax=69 / qpstep=4 / cplxblur=20.0 / qblur=0.5 / ip_ratio=1.40 / aq=1:1.00
Language : English
Default : Yes
Forced : No
DURATION : 01:19:59.261000000
NUMBER_OF_FRAMES : 115067
NUMBER_OF_BYTES : 1199756972
_STATISTICS_WRITING_APP : mkvmerge v7.7.0 ('Six Voices') 64bit built on Feb 28 2015 23:39:33
_STATISTICS_WRITING_DATE_UTC : 2015-04-14 10:28:07
_STATISTICS_TAGS : BPS DURATION NUMBER_OF_FRAMES NUMBER_OF_BYTES

Audio #1
ID : 2
Format : AC-3
Format/Info : Audio Coding 3
Mode extension : CM (complete main)
Format settings, Endianness : Big
Codec ID : A_AC3
Duration : 1h 20mn
Bit rate mode : Constant
Bit rate : 448 Kbps
Channel(s) : 6 channels
Channel positions : Front: L C R, Side: L R, LFE
Sampling rate : 48.0 KHz
Bit depth : 16 bits
Compression mode : Lossy
Delay relative to video : 27ms
Stream size : 256 MiB (15%)
Title : PashaUP
Language : Russian
Default : Yes
Forced : No
DURATION : 01:20:00.384000000
NUMBER_OF_FRAMES : 150012
NUMBER_OF_BYTES : 268821504
_STATISTICS_WRITING_APP : mkvmerge v7.7.0 ('Six Voices') 64bit built on Feb 28 2015 23:39:33
_STATISTICS_WRITING_DATE_UTC : 2015-04-14 10:28:07
_STATISTICS_TAGS : BPS DURATION NUMBER_OF_FRAMES NUMBER_OF_BYTES

Audio #2
ID : 3
Format : AC-3
Format/Info : Audio Coding 3
Mode extension : CM (complete main)
Format settings, Endianness : Big
Codec ID : A_AC3
Duration : 1h 20mn
Bit rate mode : Constant
Bit rate : 448 Kbps
Channel(s) : 6 channels
Channel positions : Front: L C R, Side: L R, LFE
Sampling rate : 48.0 KHz
Bit depth : 16 bits
Compression mode : Lossy
Delay relative to video : 27ms
Stream size : 256 MiB (15%)
Language : English
Default : No
Forced : No
DURATION : 01:20:00.384000000
NUMBER_OF_FRAMES : 150012
NUMBER_OF_BYTES : 268821504
_STATISTICS_WRITING_APP : mkvmerge v7.7.0 ('Six Voices') 64bit built on Feb 28 2015 23:39:33
_STATISTICS_WRITING_DATE_UTC : 2015-04-14 10:28:07
_STATISTICS_TAGS : BPS DURATION NUMBER_OF_FRAMES NUMBER_OF_BYTES

Text #1
ID : 4
Format : UTF-8
Codec ID : S_TEXT/UTF8
Codec ID/Info : UTF-8 Plain Text
Language : Russian
Default : Yes
Forced : No

Text #2
ID : 5
Format : UTF-8
Codec ID : S_TEXT/UTF8
Codec ID/Info : UTF-8 Plain Text
Language : English
Default : No
Forced : No

Menu
00:00:00.000 : en:00:00:00.000
00:09:04.127 : en:00:09:04.127
00:20:18.551 : en:00:20:18.551
00:28:18.155 : en:00:28:18.155
00:39:18.273 : en:00:39:18.273
00:50:50.589 : en:00:50:50.589
01:01:55.253 : en:01:01:55.253
01:10:11.999 : en:01:10:11.999
01:16:51.982 : en:01:16:51.982



pic


Информация
Информация Скриншоты Пиры Скачавшие Список файлов
Залил Оценка Просмотров Скачан Файлов
АРХАНГЕЛ 0 862733

Теги
мультфильм, боевик, приключения

Похожие раздачи

Бэтмен против Супермена: На заре справедливости (2016) Blu-Ray Remux 1080p | Расширенная версия 37.46 GB

Бэтмен против Супермена: На заре справедливости (2016) BDRip 1080p | Расширенная версия 19.27 GB

Бэтмен против Супермена: На заре справедливости (2016) BDRip 720p | Расширенная версия 9.34 GB

Бэтмен против Супермена: На заре справедливости (2016) HDRip | Расширенная версия 2.06 GB

Больше похожих раздач →

Список комментариев
Комментарии отсутствуют

Добавить комментарий
Внимание
Гости не могут оставлять комментарии, авторизуйтесь.

Панель навигации

ПОПУЛЯРНЫЕ РАЗДАЧИ
скачать торрент Ледокол (2016) WEB-DLRip | iTunesскачать торрент Доктор Стрэндж (2016) TS
скачать торрент Ледокол (2016) WEB-DL 1080p | iTunesскачать торрент Дуэлянт (2016) CAMRip
скачать торрент Отряд самоубийц (2016) BDRip 1080p | Расширeнная версия | iTunesскачать торрент Джейсон Борн (2016) HDTV 720p | Чистый звук
скачать торрент Первый мститель: Противостояние (2016) BDRip | IMAX Edition | iTunesскачать торрент Тарзан. Легенда (2016) HDRip | iTunes
скачать торрент Dark Souls 3: Deluxe Edition (2016) PC | RePack от xatabскачать торрент Люди Икс: Апокалипсис / X-Men: Apocalypse (2016) BDRip 720p | Лицензия

Будь с нами!


Наши друзья 



Информация, расположенная на данном сервере, предназначена исключительно для частного использования и не может быть загружена/перенесена на другой компьютер. Ни владелец сайта, ни хостинг-провайдер, ни любые другие физические или юридические лица не могут нести никакой отвественностиза любое использование материалов данного сайта.

© 2012-2016 TRACK.KG.