Загрузить Adobe Flash Player
Как тут качать? :: Как встать на раздачу?

Скачать / Download torrent  
Хэш: 885b686ef2441b83ffba8bc04df3c169f9cfba7a
Добавлен: 10 апреля 2015 в 20:45:52
Категория: Мультфильмы
Размер: 1.51 GB
Проверил: АРХАНГЕЛ 10 апреля 2015 в 20:35:52

Раздают: 136 Качают: 27

Рио 2096: Любовь и ярость / Uma História de Amor e Fúria (2013) HDRip-AVC | L2

pic

Название: Рио 2096: Любовь и ярость
Оригинальное название: Uma Historia de Amor e Furia

Год выхода: 2013
Страна: Бразилия / Buriti Filmes, Gullane Filmes, Lightstar Studios
Жанр: фантастика, фэнтези, драма, политика, история
Перевод: Любительский (двухголосый закадровый) Андрей Григорьев aka The LEXX и Sandairina (Перевод на русский: slonka)

Режиссер: Луис Болоньези / Luiz Bolognesi
В ролях: Селтон Мелу, Камила Питанга, Родриго Санторо

О фильме: Мультфильм рассказывает об индейском воине Абегуаре и его возлюбленной Джанаине. Абегуар избран богами хранителем и защитником своего народа, умеет летать, а погибнув, вместо смерти принимает форму птицы. Временной период фильма охватывает более 600 лет и проходит через 4 фазы истории Бразилии - колонизацию, рабство, военную диктатуру, а также не очень отдаленное будущее - 2096 год, в каждой из которых он сражается со злом и вновь находит свою единственную и настоящую любовь.

Лучший анимационный фильм этого года по версии жюри международного фестиваля в Аннеси (Франция), считающегося главным мультфестивалем мира - "анимационными Каннами". Гран-при этого года "Кристалл Аннеси" за полнометражный фильм.

"Рио 2096: Любовь и ярость" по эпичности сравнивают с "Аватаром". Не знаю правомерно ли такое сравнение, ведь отличий больше чем сходства, а комикс-стилистика и постоянное использование принципов минимальной анимации выдают не такой уж большой бюджет. Тем не менее, монтаж, композитинг, звук и музыка практически идеальны. Снимался мультфильм шесть лет и получилось такое масштабное полотно, что аж дух захватывает. Тут есть все - драма, экшн, любовь, секс, фантастика, фэнтези, история и политика. Может быть, это и правда лучший полнометражный мультфильм этого года.


ВНИМАНИЕ!!! Мультильм предназначен для взрослой категории зрителей 16+. В мультфильме присутствуют обнажёнка и эпизоды эротического содержания.

pic pic pic


Качество: HDRip-AVC
Формат: MKV
Продолжительность: 01:14:27
Видео: AVC, 1024x576, 2000 Kbps
Звук: Русский / Португальский: AC3, 6 ch, 448 Kbps
Субтитры: Русские (Forced), Русские (Full)

General
Unique ID : 177164366326177666553043434735684751339 (0x85489DA649A0A1A4B5857DBE7BAB0FEB)
Complete name : G:\ДИСК 2\04.МУЛЬТФИЛЬМЫ\Рио 2096 Любовь и ярость Uma História de Amor e Fúria (2013) Uma Historia de Amor e Furia_encoded (2013) HDRip-AVC.mkv
Format : Matroska
Format version : Version 4 / Version 2
File size : 1.51 GiB
Duration : 1h 14mn
Overall bit rate : 2 898 Kbps
Movie name : [SOUND-GROUP] Uma Historia de Amor e Furia
Encoded date : UTC 2015-04-10 00:25:44
Writing application : mkvmerge v7.7.0 ('Six Voices') 64bit built on Feb 28 2015 23:39:33
Writing library : libebml v1.3.1 + libmatroska v1.4.2
_STATISTICS_WRITING_APP : mkvmerge v7.7.0 ('Six Voices') 64bit built on Feb 28 2015 23:39:33
_STATISTICS_WRITING_DATE_UTC : 2015-04-10 00:25:44
_STATISTICS_TAGS : BPS DURATION NUMBER_OF_FRAMES NUMBER_OF_BYTES
DURATION : 01:06:29.270000000
NUMBER_OF_FRAMES : 28
NUMBER_OF_BYTES : 3008
Attachment : Yes / Yes / Yes

Video
ID : 1
Format : AVC
Format/Info : Advanced Video Codec
Format profile : High@L4.1
Format settings, CABAC : Yes
Format settings, ReFrames : 7 frames
Codec ID : V_MPEG4/ISO/AVC
Duration : 1h 14mn
Bit rate : 2 000 Kbps
Width : 1 024 pixels
Height : 576 pixels
Display aspect ratio : 16:9
Frame rate mode : Constant
Frame rate : 24.000 fps
Color space : YUV
Chroma subsampling : 4:2:0
Bit depth : 8 bits
Scan type : Progressive
Bits/(Pixel*Frame) : 0.141
Stream size : 1.01 GiB (67%)
Writing library : x264 core 128 r2216M 198a7ea
Encoding settings : cabac=1 / ref=8 / deblock=1:-3:-3 / analyse=0x3:0x133 / me=umh / subme=8 / psy=0 / mixed_ref=1 / me_range=24 / chroma_me=1 / trellis=2 / 8x8dct=1 / cqm=0 / deadzone=21,11 / fast_pskip=1 / chroma_qp_offset=0 / threads=4 / lookahead_threads=1 / sliced_threads=0 / nr=0 / decimate=1 / interlaced=0 / bluray_compat=0 / constrained_intra=0 / bframes=6 / b_pyramid=1 / b_adapt=0 / b_bias=0 / direct=3 / weightb=1 / open_gop=0 / weightp=0 / keyint=240 / keyint_min=23 / scenecut=40 / intra_refresh=0 / rc_lookahead=40 / rc=2pass / mbtree=1 / bitrate=2000 / ratetol=1.0 / qcomp=0.60 / qpmin=0 / qpmax=69 / qpstep=4 / cplxblur=20.0 / qblur=0.5 / ip_ratio=1.40 / aq=1:1.00
Language : English
Default : Yes
Forced : No
DURATION : 01:14:28.292000000
NUMBER_OF_FRAMES : 107239
NUMBER_OF_BYTES : 1116614235
_STATISTICS_WRITING_APP : mkvmerge v7.7.0 ('Six Voices') 64bit built on Feb 28 2015 23:39:33
_STATISTICS_WRITING_DATE_UTC : 2015-04-10 00:25:44
_STATISTICS_TAGS : BPS DURATION NUMBER_OF_FRAMES NUMBER_OF_BYTES

Audio #1
ID : 2
Format : AC-3
Format/Info : Audio Coding 3
Mode extension : CM (complete main)
Format settings, Endianness : Big
Codec ID : A_AC3
Duration : 1h 14mn
Bit rate mode : Constant
Bit rate : 448 Kbps
Channel(s) : 6 channels
Channel positions : Front: L C R, Side: L R, LFE
Sampling rate : 48.0 KHz
Bit depth : 16 bits
Compression mode : Lossy
Delay relative to video : 27ms
Stream size : 239 MiB (15%)
Title : DVO Sandairina, -䰥頃裮쥢
Language : Russian
Default : Yes
Forced : No
DURATION : 01:14:28.512000000
NUMBER_OF_FRAMES : 139641
NUMBER_OF_BYTES : 250236672
_STATISTICS_WRITING_APP : mkvmerge v7.7.0 ('Six Voices') 64bit built on Feb 28 2015 23:39:33
_STATISTICS_WRITING_DATE_UTC : 2015-04-10 00:25:44
_STATISTICS_TAGS : BPS DURATION NUMBER_OF_FRAMES NUMBER_OF_BYTES

Audio #2
ID : 3
Format : AC-3
Format/Info : Audio Coding 3
Mode extension : CM (complete main)
Format settings, Endianness : Big
Codec ID : A_AC3
Duration : 1h 14mn
Bit rate mode : Constant
Bit rate : 448 Kbps
Channel(s) : 6 channels
Channel positions : Front: L C R, Side: L R, LFE
Sampling rate : 48.0 KHz
Bit depth : 16 bits
Compression mode : Lossy
Delay relative to video : 27ms
Stream size : 239 MiB (15%)
Title : Original
Language : Portuguese
Default : No
Forced : No
DURATION : 01:14:28.512000000
NUMBER_OF_FRAMES : 139641
NUMBER_OF_BYTES : 250236672
_STATISTICS_WRITING_APP : mkvmerge v7.7.0 ('Six Voices') 64bit built on Feb 28 2015 23:39:33
_STATISTICS_WRITING_DATE_UTC : 2015-04-10 00:25:44
_STATISTICS_TAGS : BPS DURATION NUMBER_OF_FRAMES NUMBER_OF_BYTES

Text #1
ID : 4
Format : ASS
Codec ID : S_TEXT/ASS
Codec ID/Info : Advanced Sub Station Alpha
Compression mode : Lossless
Title : Forced
Language : Russian
Default : Yes
Forced : Yes

Text #2
ID : 5
Format : UTF-8
Codec ID : S_TEXT/UTF8
Codec ID/Info : UTF-8 Plain Text
Title : Full
Language : Russian
Default : No
Forced : No



pic


Информация
Информация Скриншоты Пиры Скачавшие Список файлов
Залил Оценка Просмотров Скачан Файлов
АРХАНГЕЛ 0 566641

Теги
фантастика, фэнтези, драма, политика, история

Похожие раздачи

Поиск не дал результатов.Больше похожих раздач →

Список комментариев
Комментарии отсутствуют

Добавить комментарий
Внимание
Гости не могут оставлять комментарии, авторизуйтесь.

Панель навигации

ПОПУЛЯРНЫЕ РАЗДАЧИ
скачать торрент Ледокол (2016) WEB-DLRip | iTunesскачать торрент Доктор Стрэндж (2016) TS
скачать торрент Ледокол (2016) WEB-DL 1080p | iTunesскачать торрент Дуэлянт (2016) CAMRip
скачать торрент Отряд самоубийц (2016) BDRip 1080p | Расширeнная версия | iTunesскачать торрент Джейсон Борн (2016) HDTV 720p | Чистый звук
скачать торрент Первый мститель: Противостояние (2016) BDRip | IMAX Edition | iTunesскачать торрент Тарзан. Легенда (2016) HDRip | iTunes
скачать торрент Dark Souls 3: Deluxe Edition (2016) PC | RePack от xatabскачать торрент Люди Икс: Апокалипсис / X-Men: Apocalypse (2016) BDRip 720p | Лицензия

Будь с нами!


Наши друзья 



Информация, расположенная на данном сервере, предназначена исключительно для частного использования и не может быть загружена/перенесена на другой компьютер. Ни владелец сайта, ни хостинг-провайдер, ни любые другие физические или юридические лица не могут нести никакой отвественностиза любое использование материалов данного сайта.

© 2012-2016 TRACK.KG.