Загрузить Adobe Flash Player
Как тут качать? :: Как встать на раздачу?

Скачать / Download torrent  
Хэш: e0eee539e2fedb13ed575219a1c7db301fbbde8b
Добавлен: 5 апреля 2015 в 00:52:10
Категория: Мультфильмы
Размер: 1.77 GB
Проверил: АРХАНГЕЛ 5 апреля 2015 в 00:52:10

Раздают: 26 Качают: 13

Титоф / Titeuf / Titeuf Le Film (2011) BDRip-AVC | L1

pic

Название: Титоф
Оригинальное название: Titeuf / Titeuf Le Film

Год выхода: 2011
Страна: Франция / France 3 Cinеma, Moonscoop, Moonscoop...
Жанр: мультфильм, комедия
Перевод: Любительский (Одноголосый закадровый) «Black»

Режиссер: Филипп Шаппу (Зеп) / Philippe Chappuis (Zep)
Роли озвучивали: Дональд Реньо, Мария Пакоме, Жан Рошфор, Забу Бретман, Мелани Бернье, Сэм Кэрман, Джонни Холлидэй.

О фильме: Увидьте мир глазами Титофа - французского подростка с необычным воображением. Как и у любого юноши его возраста, основные проблемы Титофа: уроки, родители, хулиганы, девочки.
Подростковая жизнь идёт своим чередом, но когда родители Титофа решают разойтись, весь его мир переворачивается вверх дном. В дополнении к семейным проблемам, Надия (его возлюбленная) не пригласила его на свой день рождения, и теперь Титофу предстоит найти способ убедить её в том, что он достоен её внимания.

pic pic pic


Качество: BDRip-AVC
Формат: MKV
Продолжительность: 01:27:21
Видео: AVC, 1024x432, 2000 Kbps
Звук: Русский / Французский: AC3, 6 ch, 448 Kbps
Субтитры: Русский, французский, английский

General
Unique ID : 251383942906075604130552796858156030510 (0xBD1EC94C2482F445AFCA31AD489F9A2E)
Complete name : G:\ДИСК 2\04.МУЛЬТФИЛЬМЫ\Титоф Titeuf Titeuf Le Film (2011)\Titeuf Le Film (2011) BDRip-AVC.mkv
Format : Matroska
Format version : Version 4 / Version 2
File size : 1.77 GiB
Duration : 1h 27mn
Overall bit rate : 2 898 Kbps
Encoded date : UTC 2013-06-09 20:13:56
Writing application : mkvmerge v7.7.0 ('Six Voices') 64bit built on Feb 28 2015 23:39:33
Writing library : XviD4PSP 6.0 / 54.29.105
DURATION : 01:25:27.085000000
NUMBER_OF_FRAMES : 1453
NUMBER_OF_BYTES : 42709
_STATISTICS_WRITING_APP : mkvmerge v7.7.0 ('Six Voices') 64bit built on Feb 28 2015 23:39:33
_STATISTICS_WRITING_DATE_UTC : 2015-04-03 23:33:22
_STATISTICS_TAGS : BPS DURATION NUMBER_OF_FRAMES NUMBER_OF_BYTES

Video
ID : 1
Format : AVC
Format/Info : Advanced Video Codec
Format profile : High@L4.1
Format settings, CABAC : Yes
Format settings, ReFrames : 9 frames
Codec ID : V_MPEG4/ISO/AVC
Duration : 1h 27mn
Bit rate : 2 000 Kbps
Width : 1 024 pixels
Height : 432 pixels
Display aspect ratio : 1.85:1
Original display aspect ratio : 1.85:1
Frame rate mode : Constant
Frame rate : 23.976 fps
Color space : YUV
Chroma subsampling : 4:2:0
Bit depth : 8 bits
Scan type : Progressive
Bits/(Pixel*Frame) : 0.189
Stream size : 1.19 GiB (67%)
Writing library : x264 core 128 r2216M 198a7ea
Encoding settings : cabac=1 / ref=10 / deblock=1:-3:-3 / analyse=0x3:0x133 / me=umh / subme=10 / psy=0 / mixed_ref=1 / me_range=32 / chroma_me=1 / trellis=2 / 8x8dct=1 / cqm=0 / deadzone=20,11 / fast_pskip=1 / chroma_qp_offset=0 / threads=4 / lookahead_threads=1 / sliced_threads=0 / nr=0 / decimate=1 / interlaced=0 / bluray_compat=0 / constrained_intra=0 / bframes=10 / b_pyramid=1 / b_adapt=0 / b_bias=10 / direct=3 / weightb=1 / open_gop=0 / weightp=0 / keyint=240 / keyint_min=23 / scenecut=40 / intra_refresh=0 / rc_lookahead=40 / rc=2pass / mbtree=1 / bitrate=2000 / ratetol=1.0 / qcomp=0.60 / qpmin=10 / qpmax=51 / qpstep=4 / cplxblur=20.0 / qblur=0.5 / ip_ratio=1.40 / aq=1:1.00
Default : Yes
Forced : No
DURATION : 01:27:21.195000000
NUMBER_OF_FRAMES : 125663
NUMBER_OF_BYTES : 1310169720
_STATISTICS_WRITING_APP : mkvmerge v7.7.0 ('Six Voices') 64bit built on Feb 28 2015 23:39:33
_STATISTICS_WRITING_DATE_UTC : 2015-04-03 23:33:22
_STATISTICS_TAGS : BPS DURATION NUMBER_OF_FRAMES NUMBER_OF_BYTES

Audio #1
ID : 2
Format : AC-3
Format/Info : Audio Coding 3
Mode extension : CM (complete main)
Format settings, Endianness : Big
Codec ID : A_AC3
Duration : 1h 27mn
Bit rate mode : Constant
Bit rate : 448 Kbps
Channel(s) : 6 channels
Channel positions : Front: L C R, Side: L R, LFE
Sampling rate : 48.0 KHz
Bit depth : 16 bits
Compression mode : Lossy
Delay relative to video : 27ms
Stream size : 280 MiB (15%)
Title : «Black»
Language : Russian
Default : Yes
Forced : No
DURATION : 01:27:21.248000000
NUMBER_OF_FRAMES : 163789
NUMBER_OF_BYTES : 293509888
_STATISTICS_WRITING_APP : mkvmerge v7.7.0 ('Six Voices') 64bit built on Feb 28 2015 23:39:33
_STATISTICS_WRITING_DATE_UTC : 2015-04-03 23:33:22
_STATISTICS_TAGS : BPS DURATION NUMBER_OF_FRAMES NUMBER_OF_BYTES

Audio #2
ID : 3
Format : AC-3
Format/Info : Audio Coding 3
Mode extension : CM (complete main)
Format settings, Endianness : Big
Codec ID : A_AC3
Duration : 1h 27mn
Bit rate mode : Constant
Bit rate : 448 Kbps
Channel(s) : 6 channels
Channel positions : Front: L C R, Side: L R, LFE
Sampling rate : 48.0 KHz
Bit depth : 16 bits
Compression mode : Lossy
Delay relative to video : 27ms
Stream size : 280 MiB (15%)
Language : French
Default : No
Forced : No
DURATION : 01:27:21.248000000
NUMBER_OF_FRAMES : 163789
NUMBER_OF_BYTES : 293509888
_STATISTICS_WRITING_APP : mkvmerge v7.7.0 ('Six Voices') 64bit built on Feb 28 2015 23:39:33
_STATISTICS_WRITING_DATE_UTC : 2015-04-03 23:33:22
_STATISTICS_TAGS : BPS DURATION NUMBER_OF_FRAMES NUMBER_OF_BYTES

Text #1
ID : 4
Format : UTF-8
Codec ID : S_TEXT/UTF8
Codec ID/Info : UTF-8 Plain Text
Title : Русский
Language : Russian
Default : Yes
Forced : No

Text #2
ID : 5
Format : UTF-8
Codec ID : S_TEXT/UTF8
Codec ID/Info : UTF-8 Plain Text
Title : Французский
Language : French
Default : No
Forced : No

Text #3
ID : 6
Format : UTF-8
Codec ID : S_TEXT/UTF8
Codec ID/Info : UTF-8 Plain Text
Title : английский
Language : English
Default : No
Forced : No



pic


Информация
Информация Скриншоты Пиры Скачавшие Список файлов
Залил Оценка Просмотров Скачан Файлов
АРХАНГЕЛ 0 321481

Теги
мультфильм, комедия

Похожие раздачи

Титоф / Titeuf, le film (2011) [мультфильм, комедия] HDRip | VO {Black} 1.20 GB

Больше похожих раздач →

Список комментариев
Комментарии отсутствуют

Добавить комментарий
Внимание
Гости не могут оставлять комментарии, авторизуйтесь.

Панель навигации

ПОПУЛЯРНЫЕ РАЗДАЧИ
скачать торрент Ледокол (2016) WEB-DLRip | iTunesскачать торрент Доктор Стрэндж (2016) TS
скачать торрент Ледокол (2016) WEB-DL 1080p | iTunesскачать торрент Дуэлянт (2016) CAMRip
скачать торрент Отряд самоубийц (2016) BDRip 1080p | Расширeнная версия | iTunesскачать торрент Джейсон Борн (2016) HDTV 720p | Чистый звук
скачать торрент Первый мститель: Противостояние (2016) BDRip | IMAX Edition | iTunesскачать торрент Тарзан. Легенда (2016) HDRip | iTunes
скачать торрент Dark Souls 3: Deluxe Edition (2016) PC | RePack от xatabскачать торрент Люди Икс: Апокалипсис / X-Men: Apocalypse (2016) BDRip 720p | Лицензия

Будь с нами!


Наши друзья 



Информация, расположенная на данном сервере, предназначена исключительно для частного использования и не может быть загружена/перенесена на другой компьютер. Ни владелец сайта, ни хостинг-провайдер, ни любые другие физические или юридические лица не могут нести никакой отвественностиза любое использование материалов данного сайта.

© 2012-2016 TRACK.KG.