Загрузить Adobe Flash Player
Как тут качать? :: Как встать на раздачу?

Скачать / Download torrent  
Хэш: 2a4f5d6e43fe8ec0185fd27e680ad8ddd957760c
Добавлен: 2 апреля 2015 в 22:53:14
Категория: Фильмы » Зарубежное кино » Боевики
Размер: 4.22 GB
Проверил: АРХАНГЕЛ 2 апреля 2015 в 22:53:14

Раздают: 27 Качают: 39

Исход: Цари и боги / Exodus: Gods and Kings (2014) BDRip- AVC | Лицензия | A

pic

«Он бросил вызов империи и изменил мир»

Название: Исход: Цари и боги
Оригинальное название: Exodus: Gods and Kings

Год выхода: 2014
Страна: Великобритания, США, Испания / Babieka, Chernin Entertainment, Scott Free Productions, Volcano Films
Жанр: боевик, драма, приключения
Перевод: Дубляж (Rus / Ukr) Лицензия (Blu-ray EUR) , Авторский (одноголосый закадровый) Д.Есарев

Режиссер: Ридли Скотт
В ролях: Кристиан Бэйл, Джоэл Эдгертон, Джон Туртурро, Аарон Пол, Бен Мендельсон, Мария Вальверде, Сигурни Уивер, Бен Кингсли, Хиам Аббасс, Исаак Эндрюс

О фильме: Ветхозаветная история о великом пророке Моисее и освобождении еврейского народа из египетского плена. Моисей появился на свет в те времена, когда фараон приказал убивать всех новорожденных мальчиков еврейского происхождения. Чтобы спасти его, мать положила малыша в корзину из тростника и отправила вниз по Нилу.
Ребенка нашла дочь фараона, которая усыновила его и растила рядом с Рамсесом - будущим фараоном. Много лет спустя, став мужчиной, Моисей бежит из Египта, а затем возвращается туда по велению Господа, чтобы избавить свой народ от оков рабства...

pic pic pic


Качество: BDRip- AVC (исх. BD-Remux 1080p)
Формат: MKV
Продолжительность: 02:30:20
Видео: AVC, 1024x424, 2000 Kbps
Aудио #1: (Russian) AC3, 3/2 (L,C,R,l,r) + LFE ch, ~448 kbps [Дубляж, Blu-ray EUR]
Aудио#2: (Ukrainian) AC3, 3/2 (L,C,R,l,r) + LFE ch, ~448 kbps [Дубляж,Blu-ray EUR]
Аудио#3: (Russian) AC3, 3/2 (L,C,R,l,r) + LFE ch, ~448 kbps [Авторский Д.Есарев ]
Аудио#4: (English) AC3, 3/2 (L,C,R,l,r) + LFE ch, ~448 kbps
Aудио#5: (English) AC3, 2/0 (L,R) ch, ~224.00 kbps [Audio Commentary by Director/Producer Ridley Scott and Co-Screenwriter]
Субтитры: Russian (Forced, iTunes), Russian (iTunes), Ukrainian (iTunes), Russian (Commentary), English, English (SDH), English (Commentary)
Доп. Информация: Сохранены оригинальные главы как на Blu-ray.



> Фильм снят за 74 дня.
> Джоэл Эдгертон узнал о том, что получил роль Рамзеса из поздравительных писем фанатов, которые следили за кастингом онлайн.
> Оскар Айзек и Хавьер Бардем отклонили роль Рамзеса.
> Готовясь к роли, Кристиан Бэйл прочитал множество священных для христиан и иудеев книг, посещал воскресную школу и пересмотрел массу фильмов соответствующей тематики.



> Моисей по колено заходит в море, чтобы достать со дна свой меч, и соответственно его одежда намокает. Когда он выходит, с одежды еще стекает вода, через одну смену кадров Моисей снова стоит полностью сухой.

General
Unique ID : 200175350456038452326529891440999950070 (0x96985EC29E72DFEDAACFA5F6282A66F6)
Complete name : G:\ДИСК 2\01.ФИЛЬМЫ\Исход Цари и боги Exodus Gods and Kings (2014)\Exodus.Gods.and.Kings.2014.BDRip-AVC.AC3.2xRus.Ukr.2xEng.mkv
Format : Matroska
Format version : Version 4 / Version 2
File size : 4.22 GiB
Duration : 2h 30mn
Overall bit rate : 4 019 Kbps
Encoded date : UTC 2015-04-02 14:35:58
Writing application : mkvmerge v7.7.0 ('Six Voices') 64bit built on Feb 28 2015 23:39:33
Writing library : libebml v1.3.1 + libmatroska v1.4.2
DURATION : 02:25:32.558000000
NUMBER_OF_FRAMES : 2388
NUMBER_OF_BYTES : 124826
_STATISTICS_WRITING_APP : mkvmerge v7.7.0 ('Six Voices') 64bit built on Feb 28 2015 23:39:33
_STATISTICS_WRITING_DATE_UTC : 2015-04-02 14:35:58
_STATISTICS_TAGS : BPS DURATION NUMBER_OF_FRAMES NUMBER_OF_BYTES
Attachment : Yes

Video
ID : 1
Format : AVC
Format/Info : Advanced Video Codec
Format profile : High@L4.1
Format settings, CABAC : Yes
Format settings, ReFrames : 10 frames
Codec ID : V_MPEG4/ISO/AVC
Duration : 2h 30mn
Bit rate : 2 000 Kbps
Width : 1 024 pixels
Height : 424 pixels
Display aspect ratio : 2.40:1
Original display aspect ratio : 2.40:1
Frame rate mode : Constant
Frame rate : 23.976 fps
Color space : YUV
Chroma subsampling : 4:2:0
Bit depth : 8 bits
Scan type : Progressive
Bits/(Pixel*Frame) : 0.192
Stream size : 2.02 GiB (48%)
Title : Exodus: Gods and Kings (2014) - Release for HDCLUB
Writing library : x264 core 128 r2216M 198a7ea
Encoding settings : cabac=1 / ref=10 / deblock=1:-3:-3 / analyse=0x3:0x133 / me=umh / subme=8 / psy=1 / psy_rd=1.00:0.20 / mixed_ref=1 / me_range=32 / chroma_me=1 / trellis=2 / 8x8dct=1 / cqm=0 / deadzone=21,11 / fast_pskip=1 / chroma_qp_offset=-6 / threads=4 / lookahead_threads=1 / sliced_threads=0 / nr=0 / decimate=0 / interlaced=0 / bluray_compat=0 / constrained_intra=0 / bframes=10 / b_pyramid=0 / b_adapt=0 / b_bias=0 / direct=3 / weightb=1 / open_gop=0 / weightp=0 / keyint=240 / keyint_min=23 / scenecut=40 / intra_refresh=0 / rc_lookahead=40 / rc=2pass / mbtree=1 / bitrate=2000 / ratetol=1.0 / qcomp=0.60 / qpmin=10 / qpmax=51 / qpstep=4 / cplxblur=20.0 / qblur=0.5 / ip_ratio=1.40 / aq=1:1.00
Language : English
Default : Yes
Forced : No
DURATION : 02:30:20.095000000
NUMBER_OF_FRAMES : 216266
NUMBER_OF_BYTES : 2254004496
_STATISTICS_WRITING_APP : mkvmerge v7.7.0 ('Six Voices') 64bit built on Feb 28 2015 23:39:33
_STATISTICS_WRITING_DATE_UTC : 2015-04-02 14:35:58
_STATISTICS_TAGS : BPS DURATION NUMBER_OF_FRAMES NUMBER_OF_BYTES

Audio #1
ID : 2
Format : AC-3
Format/Info : Audio Coding 3
Mode extension : CM (complete main)
Format settings, Endianness : Big
Codec ID : A_AC3
Duration : 2h 30mn
Bit rate mode : Constant
Bit rate : 448 Kbps
Channel(s) : 6 channels
Channel positions : Front: L C R, Side: L R, LFE
Sampling rate : 48.0 KHz
Bit depth : 16 bits
Compression mode : Lossy
Delay relative to video : 27ms
Stream size : 482 MiB (11%)
Title : DTS 5.1 @ 768 kbps - DUB, Blu-ray EUR
Language : Russian
Default : Yes
Forced : No
DURATION : 02:30:12.608000000
NUMBER_OF_FRAMES : 281644
NUMBER_OF_BYTES : 504706048
_STATISTICS_WRITING_APP : mkvmerge v7.7.0 ('Six Voices') 64bit built on Feb 28 2015 23:39:33
_STATISTICS_WRITING_DATE_UTC : 2015-04-02 14:35:58
_STATISTICS_TAGS : BPS DURATION NUMBER_OF_FRAMES NUMBER_OF_BYTES

Audio #2
ID : 3
Format : AC-3
Format/Info : Audio Coding 3
Mode extension : CM (complete main)
Format settings, Endianness : Big
Codec ID : A_AC3
Duration : 2h 30mn
Bit rate mode : Constant
Bit rate : 448 Kbps
Channel(s) : 6 channels
Channel positions : Front: L C R, Side: L R, LFE
Sampling rate : 48.0 KHz
Bit depth : 16 bits
Compression mode : Lossy
Delay relative to video : 27ms
Stream size : 482 MiB (11%)
Title : AC3 5.1 @ 448 kbps - DUB, Blu-ray EUR
Language : Ukrainian
Default : No
Forced : No
DURATION : 02:30:12.608000000
NUMBER_OF_FRAMES : 281644
NUMBER_OF_BYTES : 504706048
_STATISTICS_WRITING_APP : mkvmerge v7.7.0 ('Six Voices') 64bit built on Feb 28 2015 23:39:33
_STATISTICS_WRITING_DATE_UTC : 2015-04-02 14:35:58
_STATISTICS_TAGS : BPS DURATION NUMBER_OF_FRAMES NUMBER_OF_BYTES

Audio #3
ID : 4
Format : AC-3
Format/Info : Audio Coding 3
Mode extension : CM (complete main)
Format settings, Endianness : Big
Codec ID : A_AC3
Duration : 2h 30mn
Bit rate mode : Constant
Bit rate : 448 Kbps
Channel(s) : 6 channels
Channel positions : Front: L C R, Side: L R, LFE
Sampling rate : 48.0 KHz
Bit depth : 16 bits
Compression mode : Lossy
Delay relative to video : 27ms
Stream size : 482 MiB (11%)
Title : DTS 5.1 @ 1536 kbps - AVO, D.Esarev
Language : Russian
Default : No
Forced : No
DURATION : 02:30:20.256000000
NUMBER_OF_FRAMES : 281883
NUMBER_OF_BYTES : 505134336
_STATISTICS_WRITING_APP : mkvmerge v7.7.0 ('Six Voices') 64bit built on Feb 28 2015 23:39:33
_STATISTICS_WRITING_DATE_UTC : 2015-04-02 14:35:58
_STATISTICS_TAGS : BPS DURATION NUMBER_OF_FRAMES NUMBER_OF_BYTES

Audio #4
ID : 5
Format : AC-3
Format/Info : Audio Coding 3
Mode extension : CM (complete main)
Format settings, Endianness : Big
Codec ID : A_AC3
Duration : 2h 30mn
Bit rate mode : Constant
Bit rate : 448 Kbps
Channel(s) : 6 channels
Channel positions : Front: L C R, Side: L R, LFE
Sampling rate : 48.0 KHz
Bit depth : 16 bits
Compression mode : Lossy
Delay relative to video : 27ms
Stream size : 482 MiB (11%)
Title : DTS 5.1 @ 1536 kbps
Language : English
Default : No
Forced : No
DURATION : 02:30:20.224000000
NUMBER_OF_FRAMES : 281882
NUMBER_OF_BYTES : 505132544
_STATISTICS_WRITING_APP : mkvmerge v7.7.0 ('Six Voices') 64bit built on Feb 28 2015 23:39:33
_STATISTICS_WRITING_DATE_UTC : 2015-04-02 14:35:58
_STATISTICS_TAGS : BPS DURATION NUMBER_OF_FRAMES NUMBER_OF_BYTES

Audio #5
ID : 6
Format : AC-3
Format/Info : Audio Coding 3
Mode extension : CM (complete main)
Format settings, Endianness : Big
Codec ID : A_AC3
Duration : 2h 30mn
Bit rate mode : Constant
Bit rate : 224 Kbps
Channel(s) : 2 channels
Channel positions : Front: L R
Sampling rate : 48.0 KHz
Bit depth : 16 bits
Compression mode : Lossy
Delay relative to video : 27ms
Stream size : 241 MiB (6%)
Title : AC3 2.0 @ 224 kbps - Commentary by Director/Producer Ridley Scott and Co-Screenwriter Jeffrey Caine
Language : English
Default : No
Forced : No
DURATION : 02:30:20.224000000
NUMBER_OF_FRAMES : 281882
NUMBER_OF_BYTES : 252566272
_STATISTICS_WRITING_APP : mkvmerge v7.7.0 ('Six Voices') 64bit built on Feb 28 2015 23:39:33
_STATISTICS_WRITING_DATE_UTC : 2015-04-02 14:35:58
_STATISTICS_TAGS : BPS DURATION NUMBER_OF_FRAMES NUMBER_OF_BYTES

Text #1
ID : 7
Format : UTF-8
Codec ID : S_TEXT/UTF8
Codec ID/Info : UTF-8 Plain Text
Title : Forced, iTunes
Language : Russian
Default : Yes
Forced : No

Text #2
ID : 8
Format : UTF-8
Codec ID : S_TEXT/UTF8
Codec ID/Info : UTF-8 Plain Text
Title : iTunes
Language : Russian
Default : No
Forced : No

Text #3
ID : 9
Format : UTF-8
Codec ID : S_TEXT/UTF8
Codec ID/Info : UTF-8 Plain Text
Title : iTunes
Language : Ukrainian
Default : No
Forced : No

Text #4
ID : 10
Format : UTF-8
Codec ID : S_TEXT/UTF8
Codec ID/Info : UTF-8 Plain Text
Title : Commentary, Blu-ray EUR
Language : Russian
Default : No
Forced : No

Text #5
ID : 11
Format : UTF-8
Codec ID : S_TEXT/UTF8
Codec ID/Info : UTF-8 Plain Text
Language : English
Default : No
Forced : No

Text #6
ID : 12
Format : UTF-8
Codec ID : S_TEXT/UTF8
Codec ID/Info : UTF-8 Plain Text
Title : SDH
Language : English
Default : No
Forced : No

Text #7
ID : 13
Format : UTF-8
Codec ID : S_TEXT/UTF8
Codec ID/Info : UTF-8 Plain Text
Title : Commentary
Language : English
Default : No
Forced : No

Menu
00:00:00.000 : en:00:00:00.000
00:03:55.402 : en:00:03:55.402
00:06:51.995 : en:00:06:51.995
00:11:47.707 : en:00:11:47.707
00:14:29.452 : en:00:14:29.452
00:18:37.658 : en:00:18:37.658
00:22:15.834 : en:00:22:15.834
00:26:51.151 : en:00:26:51.151
00:30:31.288 : en:00:30:31.288
00:36:41.366 : en:00:36:41.366
00:40:48.321 : en:00:40:48.321
00:44:49.937 : en:00:44:49.937
00:48:47.800 : en:00:48:47.800
00:51:16.448 : en:00:51:16.448
00:54:22.217 : en:00:54:22.217
00:57:32.658 : en:00:57:32.658
01:00:31.169 : en:01:00:31.169
01:04:41.544 : en:01:04:41.544
01:06:49.047 : en:01:06:49.047
01:11:01.883 : en:01:11:01.883
01:16:53.692 : en:01:16:53.692
01:21:18.040 : en:01:21:18.040
01:24:30.357 : en:01:24:30.357
01:28:08.533 : en:01:28:08.533
01:30:54.157 : en:01:30:54.157
01:34:14.566 : en:01:34:14.566
01:37:20.543 : en:01:37:20.543
01:39:20.204 : en:01:39:20.204
01:42:40.321 : en:01:42:40.321
01:46:50.070 : en:01:46:50.070
01:49:02.661 : en:01:49:02.661
01:52:18.315 : en:01:52:18.315
01:57:29.876 : en:01:57:29.876
02:00:23.842 : en:02:00:23.842
02:05:41.325 : en:02:05:41.325
02:07:31.269 : en:02:07:31.269
02:13:38.469 : en:02:13:38.469
02:16:21.882 : en:02:16:21.882
02:19:39.997 : en:02:19:39.997
02:23:19.800 : en:02:23:19.800



pic


Информация
Информация Скриншоты Пиры Скачавшие Список файлов
Залил Оценка Просмотров Скачан Файлов
АРХАНГЕЛ 0 42114321

Теги
боевик, драма, приключения

Похожие раздачи

Исход: Цари и боги / Exodus: Gods and Kings (2014) BDRip 1080p | Лицензия 11.34 GB

Исход: Цари и боги / Exodus: Gods and Kings (2014) BDRip 720p | Лицензия 9.13 GB

Исход: Цари и боги / Exodus: Gods and Kings (2014) HDRip | Лицензия 2.05 GB

Melodic Heavy / Power Metal / Апокалипсис - Исход возможен один / 2012 / MP3 / 320 kbps 123.45 MB

Легенды об Атлантиде: Исход / Legends of Atlantis: Exodus / 2012 / RU [L] 425.94 MB

Больше похожих раздач →

Список комментариев
Комментарии отсутствуют

Добавить комментарий
Внимание
Гости не могут оставлять комментарии, авторизуйтесь.

Панель навигации

ПОПУЛЯРНЫЕ РАЗДАЧИ
скачать торрент Пассажиры (2016) TSскачать торрент Доктор Стрэндж (2016) TS
скачать торрент Отряд самоубийц (2016) BDRip 1080p | Расширeнная версия | iTunesскачать торрент Плохой Санта 2 (2016) WEB-DLRip | iTunes
скачать торрент Первый мститель: Противостояние (2016) BDRip | IMAX Edition | iTunesскачать торрент Джейсон Борн (2016) HDTV 1080p | Чистый звук
скачать торрент Любовь не по размеру (2016) BDRip | Лицензияскачать торрент Глубоководный горизонт (2016) HDRip | iTunes
скачать торрент Волки и овцы: бе-е-е-зумное превращение (2016) WEB-DLRip | Лицензияскачать торрент Голограмма для короля (2016) HDRip | Лицензия

Будь с нами!


Наши друзья 



Информация, расположенная на данном сервере, предназначена исключительно для частного использования и не может быть загружена/перенесена на другой компьютер. Ни владелец сайта, ни хостинг-провайдер, ни любые другие физические или юридические лица не могут нести никакой отвественностиза любое использование материалов данного сайта.

© 2012-2017 TRACK.KG.