Загрузить Adobe Flash Player
Как тут качать? :: Как встать на раздачу?

Скачать / Download torrent  
Хэш: b58eb3f1e17e91135711e2055517e4de83706894
Добавлен: 2 апреля 2015 в 03:29:32
Категория: Фильмы » Зарубежное кино » Фантастика
Размер: 2.12 GB
Проверил: АРХАНГЕЛ 2 апреля 2015 в 03:29:32

Раздают: 143 Качают: 60

Весна / Spring (2014) WEB-DLRip-AVC | L2

pic

«Любовь – это монстр»

Название: Весна
Оригинальное название: Spring

Год выхода: 2014
Страна: США / XYZ Films
Жанр: ужасы, фантастика, мелодрама
Перевод: Любительский (двуголосый закадровый) den904 & DeadSno (перевод: Antonio)

Режиссер: Джастин Бенсон, Аарон Мурхед
В ролях: Лу Тейлор Пуччи, Надиа Хилкер, Ванесса Беднар, Шэйн Брэйди, Франческо Карнелутти, Винни Каррен, Оджи Дьюк, Джереми Гарднер, Холли Хоукинс

О фильме: Фильм о молодом парне, который покидает Южную Калифорнию и отправляется в Италию, где закручивает бурный роман с женщиной, у которой есть темные тайны...

pic pic pic pic pic


Качество: WEB-DLRip-AVC
Формат: MKV
Продолжительность: 01:49:36
Видео: AVC, 1024x424, 2000 Kbps
Звук: Русский / Английский: AC3, 6 ch, 384 Kbps
Субтитры: Английский

General
Unique ID : 124533389041895956287540717525133086751 (0x5DB042202844005856D6DF19B6FED01F)
Complete name : G:\ДИСК 2\01.ФИЛЬМЫ\Весна Spring (2014)\Spring (2014) WEB-DLRip-AVC.mkv
Format : Matroska
Format version : Version 2
File size : 2.12 GiB
Duration : 1h 49mn
Overall bit rate : 2 773 Kbps
Movie name : Весна
Encoded date : UTC 2015-04-01 06:05:18
Writing application : XviD4PSP 6.0 / 54.29.105
Writing library : XviD4PSP 6.0 / 54.29.105

Video
ID : 1
Format : AVC
Format/Info : Advanced Video Codec
Format profile : High@L4.1
Format settings, CABAC : Yes
Format settings, ReFrames : 9 frames
Codec ID : V_MPEG4/ISO/AVC
Duration : 1h 49mn
Bit rate : 2 000 Kbps
Width : 1 024 pixels
Height : 424 pixels
Display aspect ratio : 2.40:1
Frame rate mode : Constant
Frame rate : 23.976 fps
Color space : YUV
Chroma subsampling : 4:2:0
Bit depth : 8 bits
Scan type : Progressive
Bits/(Pixel*Frame) : 0.192
Stream size : 1.49 GiB (70%)
Writing library : x264 core 128 r2216M 198a7ea
Encoding settings : cabac=1 / ref=10 / deblock=1:0:0 / analyse=0x3:0x133 / me=umh / subme=8 / psy=1 / psy_rd=1.00:0.20 / mixed_ref=1 / me_range=32 / chroma_me=1 / trellis=2 / 8x8dct=1 / cqm=0 / deadzone=23,11 / fast_pskip=1 / chroma_qp_offset=-3 / threads=4 / lookahead_threads=1 / sliced_threads=0 / nr=240 / decimate=1 / interlaced=0 / bluray_compat=0 / constrained_intra=0 / bframes=10 / b_pyramid=1 / b_adapt=0 / b_bias=0 / direct=3 / weightb=1 / open_gop=0 / weightp=0 / keyint=230 / keyint_min=23 / scenecut=40 / intra_refresh=0 / rc_lookahead=40 / rc=2pass / mbtree=1 / bitrate=2000 / ratetol=1.0 / qcomp=0.60 / qpmin=10 / qpmax=51 / qpstep=4 / cplxblur=20.0 / qblur=0.5 / ip_ratio=1.40 / aq=1:1.00
Language : English
Default : Yes
Forced : No
Encoded date : UTC 2015-04-01 06:05:18

Audio #1
ID : 2
Format : AC-3
Format/Info : Audio Coding 3
Mode extension : CM (complete main)
Format settings, Endianness : Big
Codec ID : A_AC3
Duration : 1h 49mn
Bit rate mode : Constant
Bit rate : 384 Kbps
Channel(s) : 6 channels
Channel positions : Front: L C R, Side: L R, LFE
Sampling rate : 48.0 KHz
Bit depth : 16 bits
Compression mode : Lossy
Delay relative to video : 27ms
Stream size : 301 MiB (14%)
Language : Russian
Default : Yes
Forced : No
Encoded date : UTC 2015-04-01 06:05:18

Audio #2
ID : 3
Format : AC-3
Format/Info : Audio Coding 3
Mode extension : CM (complete main)
Format settings, Endianness : Big
Codec ID : A_AC3
Duration : 1h 49mn
Bit rate mode : Constant
Bit rate : 384 Kbps
Channel(s) : 6 channels
Channel positions : Front: L C R, Side: L R, LFE
Sampling rate : 48.0 KHz
Bit depth : 16 bits
Compression mode : Lossy
Delay relative to video : 27ms
Stream size : 301 MiB (14%)
Language : English
Default : Yes
Forced : No
Encoded date : UTC 2015-04-01 06:05:18



pic


Информация
Информация Скриншоты Пиры Скачавшие Список файлов
Залил Оценка Просмотров Скачан Файлов
АРХАНГЕЛ 0 364471

Теги
ужасы, фантастика, мелодрама

Похожие раздачи

VA - Танцевальная весна 2013 [Pop / Dance] MP3@192-320 kbps 58.92 MB

Родион Варежкин - Весна Пришла... (2012) |Chanson| MP3@320 kbps 112.48 MB

VA - Малина Красная №12 Весна (2012) [Шансон] MP3@128 kbps 676.25 MB

VA - Лучшая 200-ка. Попса! Весна! (2012) [Шансон | Поп] MP3@128 kbps 649.10 MB

Больше похожих раздач →

Список комментариев
Комментарии отсутствуют

Добавить комментарий
Внимание
Гости не могут оставлять комментарии, авторизуйтесь.

Панель навигации

ПОПУЛЯРНЫЕ РАЗДАЧИ
скачать торрент Ледокол (2016) WEB-DLRip | iTunesскачать торрент Ледокол (2016) WEB-DL 1080p | iTunes
скачать торрент Дуэлянт (2016) CAMRipскачать торрент Отряд самоубийц (2016) BDRip 1080p | Расширeнная версия | iTunes
скачать торрент Джейсон Борн (2016) HDTV 720p | Чистый звукскачать торрент Первый мститель: Противостояние (2016) BDRip | IMAX Edition | iTunes
скачать торрент Тарзан. Легенда (2016) HDRip | iTunesскачать торрент Dark Souls 3: Deluxe Edition (2016) PC | RePack от xatab
скачать торрент Люди Икс: Апокалипсис / X-Men: Apocalypse (2016) BDRip 720p | Лицензияскачать торрент Полтора шпиона (2016) BDRip 1080p | Лицензия

Будь с нами!


Наши друзья 



Информация, расположенная на данном сервере, предназначена исключительно для частного использования и не может быть загружена/перенесена на другой компьютер. Ни владелец сайта, ни хостинг-провайдер, ни любые другие физические или юридические лица не могут нести никакой отвественностиза любое использование материалов данного сайта.

© 2012-2016 TRACK.KG.