Загрузить Adobe Flash Player
Как тут качать? :: Как встать на раздачу?

Скачать / Download torrent  
Хэш: 61d97ee17f06b01a8844d9b62cc1c9e47ad5d94d
Добавлен: 1 апреля 2015 в 12:03:45
Категория: Фильмы » Зарубежное кино » Боевики
Размер: 1.75 GB
Проверен: В корзине

Раздают: 80 Качают: 34

Убей меня три раза / Kill Me Three Times (2014) WEB-DLRip-AVC | L1

pic

«Это - Рай, пока всем не причиняют боль»

Название: Убей меня три раза
Оригинальное название: Kill Me Three Times

Год выхода: 2014
Страна: США, Австралия / Cargo Entertainment, Media House Capital, Stable Way Entertainment...
Жанр: боевик, триллер
Перевод: Любительский (одноголосный закадровый) PashaUp

Режиссер: Крив Стендерс
В ролях: Тереза Палмер, Саймон Пегг, Люк Хемсворт, Алиси Брага, Салливан Степлтон, Каллэн Мулвей, Брайан Браун, Стив Ле Маркванд, Тони Спенсер, Анна Филп

О фильме: Молодая женщина, живущая в австралийском городке, является нитью, которая связывает три истории — убийства, шантажа и мести.

pic pic pic pic pic


Качество: WEB-DLRip-AVC
Формат: MKV
Продолжительность: 01:30:22
Видео: AVC, 1024x424, 2000 Kbps
Звук: Pусский: AC3, 2 ch, 384 Kbps / Aнглийский: AC3, 6 ch, 384 Kbps
Субтитры: русские (NotaBenoid), английские + русские, английские (отдельно)

General
Unique ID : 191696629455131596866120665982810906155 (0x90376D8A3C9685A8A42DD801F9B2DE2B)
Complete name : G:\ДИСК 2\01.ФИЛЬМЫ\Убей меня три раза Kill Me Three Times (2014)\Kill Me Three Times (2014) WEB-DLRip-AVC\Kill.Me.Three.Times.2014.WEB-DLRip-AVC.mkv
Format : Matroska
Format version : Version 4 / Version 2
File size : 1.75 GiB
Duration : 1h 30mn
Overall bit rate : 2 770 Kbps
Movie name : Kill.Me.Three.Times.2014.720p
Encoded date : UTC 2015-04-01 04:31:17
Writing application : mkvmerge v7.7.0 ('Six Voices') 64bit built on Feb 28 2015 23:39:33
Writing library : libebml v1.3.1 + libmatroska v1.4.2
DURATION : 01:22:04.886000000
NUMBER_OF_FRAMES : 734
NUMBER_OF_BYTES : 24862
_STATISTICS_WRITING_APP : mkvmerge v7.7.0 ('Six Voices') 64bit built on Feb 28 2015 23:39:33
_STATISTICS_WRITING_DATE_UTC : 2015-04-01 04:31:17
_STATISTICS_TAGS : BPS DURATION NUMBER_OF_FRAMES NUMBER_OF_BYTES

Video
ID : 1
Format : AVC
Format/Info : Advanced Video Codec
Format profile : High@L4.1
Format settings, CABAC : Yes
Format settings, ReFrames : 8 frames
Codec ID : V_MPEG4/ISO/AVC
Duration : 1h 30mn
Bit rate : 2 000 Kbps
Width : 1 024 pixels
Height : 424 pixels
Display aspect ratio : 2.40:1
Frame rate mode : Constant
Frame rate : 23.976 fps
Color space : YUV
Chroma subsampling : 4:2:0
Bit depth : 8 bits
Scan type : Progressive
Bits/(Pixel*Frame) : 0.192
Stream size : 1.23 GiB (70%)
Writing library : x264 core 130 r2273 b3065e6
Encoding settings : cabac=1 / ref=8 / deblock=1:-3:-3 / analyse=0x3:0x133 / me=umh / subme=8 / psy=1 / psy_rd=1.00:0.00 / mixed_ref=1 / me_range=32 / chroma_me=1 / trellis=2 / 8x8dct=1 / cqm=0 / deadzone=21,11 / fast_pskip=0 / chroma_qp_offset=-2 / threads=6 / lookahead_threads=3 / sliced_threads=0 / nr=0 / decimate=1 / interlaced=0 / bluray_compat=0 / constrained_intra=0 / bframes=10 / b_pyramid=2 / b_adapt=2 / b_bias=0 / direct=3 / weightb=1 / open_gop=0 / weightp=2 / keyint=240 / keyint_min=23 / scenecut=40 / intra_refresh=0 / rc_lookahead=50 / rc=2pass / mbtree=1 / bitrate=2000 / ratetol=1.0 / qcomp=0.60 / qpmin=0 / qpmax=69 / qpstep=4 / cplxblur=20.0 / qblur=0.5 / ip_ratio=1.40 / aq=1:1.00
Language : English
Default : Yes
Forced : No

Audio #1
ID : 2
Format : AC-3
Format/Info : Audio Coding 3
Mode extension : CM (complete main)
Format settings, Endianness : Big
Codec ID : A_AC3
Duration : 1h 30mn
Bit rate mode : Constant
Bit rate : 384 Kbps
Channel(s) : 2 channels
Channel positions : Front: L R
Sampling rate : 48.0 KHz
Bit depth : 16 bits
Compression mode : Lossy
Stream size : 248 MiB (14%)
Title : PashaUp
Language : Russian
Default : Yes
Forced : No

Audio #2
ID : 3
Format : AC-3
Format/Info : Audio Coding 3
Mode extension : CM (complete main)
Format settings, Endianness : Big
Codec ID : A_AC3
Duration : 1h 30mn
Bit rate mode : Constant
Bit rate : 384 Kbps
Channel(s) : 6 channels
Channel positions : Front: L C R, Side: L R, LFE
Sampling rate : 48.0 KHz
Bit depth : 16 bits
Compression mode : Lossy
Stream size : 248 MiB (14%)
Language : English
Default : No
Forced : No

Text #1
ID : 4
Format : UTF-8
Codec ID : S_TEXT/UTF8
Codec ID/Info : UTF-8 Plain Text
Title : NotaBenoid
Language : Russian
Default : Yes
Forced : No

Text #2
ID : 5
Format : UTF-8
Codec ID : S_TEXT/UTF8
Codec ID/Info : UTF-8 Plain Text
Language : English
Default : No
Forced : No

Menu
00:00:00.000 : en:1
00:06:35.000 : en:2
00:11:32.000 : en:3
00:17:09.000 : en:4
00:23:18.000 : en:5
00:28:22.000 : en:6
00:34:02.000 : en:7
00:40:21.000 : en:8
00:48:11.000 : en:9
00:53:21.000 : en:10
00:59:42.000 : en:11
01:05:30.000 : en:12
01:10:54.000 : en:13
01:15:00.000 : en:14
01:20:00.000 : en:15
01:23:43.000 : en:16



pic


Информация
Информация Скриншоты Пиры Скачавшие Список файлов
Залил Оценка Просмотров Скачан Файлов
АРХАНГЕЛ 0 538263

Теги
боевик, триллер

Похожие раздачи

Убей меня три раза / Kill Me Three Times (2014) BDRip 1080p | Лицензия 6.63 GB

Убей ради меня / Kill for Me (2012) [Триллер, Драма] WEB-DLRip | MVO {Лицензия} 1.46 GB

Больше похожих раздач →

Список комментариев
Комментарии отсутствуют

Добавить комментарий
Внимание
Гости не могут оставлять комментарии, авторизуйтесь.

Панель навигации

ПОПУЛЯРНЫЕ РАЗДАЧИ
скачать торрент Ледокол (2016) WEB-DLRip | iTunesскачать торрент Доктор Стрэндж (2016) TS
скачать торрент Ледокол (2016) WEB-DL 1080p | iTunesскачать торрент Дуэлянт (2016) CAMRip
скачать торрент Отряд самоубийц (2016) BDRip 1080p | Расширeнная версия | iTunesскачать торрент Джейсон Борн (2016) HDTV 720p | Чистый звук
скачать торрент Первый мститель: Противостояние (2016) BDRip | IMAX Edition | iTunesскачать торрент Тарзан. Легенда (2016) HDRip | iTunes
скачать торрент Dark Souls 3: Deluxe Edition (2016) PC | RePack от xatabскачать торрент Люди Икс: Апокалипсис / X-Men: Apocalypse (2016) BDRip 720p | Лицензия

Будь с нами!


Наши друзья 



Информация, расположенная на данном сервере, предназначена исключительно для частного использования и не может быть загружена/перенесена на другой компьютер. Ни владелец сайта, ни хостинг-провайдер, ни любые другие физические или юридические лица не могут нести никакой отвественностиза любое использование материалов данного сайта.

© 2012-2016 TRACK.KG.