Загрузить Adobe Flash Player
Как тут качать? :: Как встать на раздачу?

Скачать / Download torrent  
Хэш: dc4029cb8c23e84fe2e0843b03b306fb285678ef
Добавлен: 27 марта 2015 в 12:18:47
Категория: Фильмы » Зарубежное кино » Мелодрамы / Драмы
Размер: 1.95 GB
Проверил: АРХАНГЕЛ 27 марта 2015 в 12:18:47

Раздают: 125 Качают: 42

Мамочка / Mommy (2014) HDRip-AVC |iTunes

pic

«Мы с тобой ближе, чем мужчина и женщина»

Название: Мамочка
Оригинальное название: Mommy

Год выхода: 2014
Страна: Канада / Metafilms, Sons of Manual,,,
Жанр: драма
Перевод: Дублированный iTunes

Режиссер: Ксавье Долан
В ролях: Энн Дорваль, Антуан-Оливье Пилон, Сюзанн Клеман, Патрик Уард, Александр Гойетт, Мишель Литюак, Изабель Нелисс, Пьер-Ив Кардинал, Вивиан Паскаль, Натали Амель-Руа

О фильме: Яркая и взбалмошная вдова Диана забирает из интерната сына-подростка и полна решимости начать новую жизнь. Со Стивом они бы жили душа в душу, но вспышки гнева импульсивного сына то и дело подрывают шаткое равновесие в семье. На подмогу приходит скромная заикающаяся соседка Кайла, и в доме на время воцаряется идиллия, но как долго это продлится?

pic pic pic pic pic


Качество: HDRip-AVC
Формат: MKV
Продолжительность: 02:18:21
Видео: AVC, 1024x576, 1631 Kbps
Звук: AC-3 at 384 Kbps
Субтитры: Английский

General
Unique ID : 219078535297716503696794078404302526112 (0xA4D0FDBAB6113B938F7C3DE0B482D6A0)
Complete name : G:\ДИСК 2\01.ФИЛЬМЫ\Мамочка Mommy (2014) BDRip 720p\MaMochka.HDRip-AVC.mkv
Format : Matroska
Format version : Version 4 / Version 2
File size : 1.95 GiB
Duration : 2h 18mn
Overall bit rate : 2 013 Kbps
Encoded date : UTC 2015-03-27 04:57:47
Writing application : mkvmerge v7.5.0 ('Glass Culture') 64bit built on Jan 4 2015 16:48:44
Writing library : libebml v1.3.1 + libmatroska v1.4.2
_STATISTICS_WRITING_APP : mkvmerge v7.5.0 ('Glass Culture') 64bit built on Jan 4 2015 16:48:44
_STATISTICS_WRITING_DATE_UTC : 2015-03-27 04:57:47
_STATISTICS_TAGS : BPS DURATION NUMBER_OF_FRAMES NUMBER_OF_BYTES
DURATION : 02:18:19.360000000
NUMBER_OF_FRAMES : 259355
NUMBER_OF_BYTES : 398369280

Video
ID : 1
Format : AVC
Format/Info : Advanced Video Codec
Format profile : High@L3.2
Format settings, CABAC : Yes
Format settings, ReFrames : 8 frames
Codec ID : V_MPEG4/ISO/AVC
Duration : 2h 18mn
Bit rate : 1 631 Kbps
Width : 1 024 pixels
Height : 576 pixels
Display aspect ratio : 16:9
Frame rate mode : Constant
Frame rate : 23.976 fps
Color space : YUV
Chroma subsampling : 4:2:0
Bit depth : 8 bits
Scan type : Progressive
Bits/(Pixel*Frame) : 0.115
Stream size : 1.54 GiB (79%)
Writing library : x264 core 130 r2273 b3065e6
Encoding settings : cabac=1 / ref=8 / deblock=1:-3:-3 / analyse=0x3:0x133 / me=umh / subme=8 / psy=1 / psy_rd=1.00:0.20 / mixed_ref=1 / me_range=16 / chroma_me=1 / trellis=2 / 8x8dct=1 / cqm=0 / deadzone=21,11 / fast_pskip=0 / chroma_qp_offset=-3 / threads=6 / lookahead_threads=3 / sliced_threads=0 / nr=0 / decimate=0 / interlaced=0 / bluray_compat=0 / constrained_intra=0 / bframes=10 / b_pyramid=2 / b_adapt=2 / b_bias=0 / direct=3 / weightb=1 / open_gop=0 / weightp=2 / keyint=240 / keyint_min=23 / scenecut=40 / intra_refresh=0 / rc_lookahead=50 / rc=2pass / mbtree=1 / bitrate=1631 / ratetol=1.0 / qcomp=0.60 / qpmin=0 / qpmax=69 / qpstep=4 / cplxblur=20.0 / qblur=0.5 / ip_ratio=1.40 / aq=1:1.00
Default : Yes
Forced : No

Audio
ID : 2
Format : AC-3
Format/Info : Audio Coding 3
Mode extension : CM (complete main)
Format settings, Endianness : Big
Codec ID : A_AC3
Duration : 2h 18mn
Bit rate mode : Constant
Bit rate : 384 Kbps
Channel(s) : 6 channels
Channel positions : Front: L C R, Side: L R, LFE
Sampling rate : 48.0 KHz
Bit depth : 16 bits
Compression mode : Lossy
Stream size : 380 MiB (19%)
Default : Yes
Forced : No

Text
ID : 3
Format : UTF-8
Codec ID : S_TEXT/UTF8
Codec ID/Info : UTF-8 Plain Text
Language : English
Default : No
Forced : No



pic


Информация
Информация Скриншоты Пиры Скачавшие Список файлов
Залил Оценка Просмотров Скачан Файлов
АРХАНГЕЛ 0 30114791

Теги
драма

Похожие раздачи

Мамочка / Mommy (2014) BDRip 1080p | Лицензия 14.17 GB

Мамочка / Mommy (2014) HDRip | Лицензия 2.17 GB

Больше похожих раздач →

Список комментариев
Комментарии отсутствуют

Добавить комментарий
Внимание
Гости не могут оставлять комментарии, авторизуйтесь.

Панель навигации

ПОПУЛЯРНЫЕ РАЗДАЧИ
скачать торрент Ледокол (2016) WEB-DLRip | iTunesскачать торрент Доктор Стрэндж (2016) TS
скачать торрент Ледокол (2016) WEB-DL 1080p | iTunesскачать торрент Дуэлянт (2016) CAMRip
скачать торрент Отряд самоубийц (2016) BDRip 1080p | Расширeнная версия | iTunesскачать торрент Джейсон Борн (2016) HDTV 720p | Чистый звук
скачать торрент Первый мститель: Противостояние (2016) BDRip | IMAX Edition | iTunesскачать торрент Тарзан. Легенда (2016) HDRip | iTunes
скачать торрент Dark Souls 3: Deluxe Edition (2016) PC | RePack от xatabскачать торрент Люди Икс: Апокалипсис / X-Men: Apocalypse (2016) BDRip 720p | Лицензия

Будь с нами!


Наши друзья 



Информация, расположенная на данном сервере, предназначена исключительно для частного использования и не может быть загружена/перенесена на другой компьютер. Ни владелец сайта, ни хостинг-провайдер, ни любые другие физические или юридические лица не могут нести никакой отвественностиза любое использование материалов данного сайта.

© 2012-2016 TRACK.KG.