Загрузить Adobe Flash Player
Как тут качать? :: Как встать на раздачу?

Скачать / Download torrent  
Хэш: 3676f6241c1ce8be7a69885aa0daaf9ec83fe01b
Добавлен: 22 марта 2015 в 12:48:30
Категория: Фильмы » Зарубежное кино » Триллеры / Криминал
Размер: 2.16 GB
Проверил: АРХАНГЕЛ 22 марта 2015 в 12:48:30

Раздают: 110 Качают: 55

Клуб бунтарей / The Riot Club (2014) HDRip-AVC | L2

pic

Название: Клуб бунтарей
Оригинальное название: The Riot Club

Год выхода: 2014
Страна: Великобритания / Film4, HanWay Films, BFI
Жанр: триллер, драма
Перевод: Любительский (двухголосый) Артём Белоконский & Анжелика Чумакова

Режиссер: Лоне Шерфиг
В ролях: Сэм Клафлин, Натали Дормер, Джессика Браун-Финдлэй, Дуглас Бут, Макс Айронс, Холлидей Грейнджер, Том Холландер, Сэм Рид, Бен Шнетцер, Олли Александр

О фильме: Студент — первокурсник Оксфордского университета вступает в пользующийся дурной славой Клуб бунтарей. Здесь, за один вечер, можно создать или разрушить репутацию на годы вперёд.

pic pic pic pic


Качество: HDRip-AVC
Формат: MKV
Продолжительность: 01:47:00
Видео: AVC, 1024x424, 2000 Kbps
Звук: Русский, английский (AC3, 6 ch, 448 Kbps)
Субтитры: Английские

General
Unique ID : 215994788718987102697633168175055910872 (0xA27F1548D4818B1D84404E629B4E37D8)
Complete name : G:\ДИСК 2\01.ФИЛЬМЫ\Клуб бунтарей The Riot Club (2014)\The.Riot.Club.2014.HDRip-AVC.mkv
Format : Matroska
Format version : Version 4 / Version 2
File size : 2.16 GiB
Duration : 1h 47mn
Overall bit rate : 2 896 Kbps
Encoded date : UTC 2015-03-22 05:39:13
Writing application : mkvmerge v7.7.0 ('Six Voices') 64bit built on Feb 28 2015 23:39:33
Writing library : libebml v1.3.1 + libmatroska v1.4.2
_STATISTICS_WRITING_APP : mkvmerge v7.7.0 ('Six Voices') 64bit built on Feb 28 2015 23:39:33
_STATISTICS_WRITING_DATE_UTC : 2015-03-22 05:39:13
_STATISTICS_TAGS : BPS DURATION NUMBER_OF_FRAMES NUMBER_OF_BYTES
DURATION : 01:47:00.960000000
NUMBER_OF_FRAMES : 200655
NUMBER_OF_BYTES : 359573760

Video
ID : 1
Format : AVC
Format/Info : Advanced Video Codec
Format profile : High@L4.1
Format settings, CABAC : Yes
Format settings, ReFrames : 10 frames
Codec ID : V_MPEG4/ISO/AVC
Duration : 1h 47mn
Bit rate : 2 000 Kbps
Width : 1 024 pixels
Height : 424 pixels
Display aspect ratio : 2.40:1
Frame rate mode : Constant
Frame rate : 23.976 fps
Color space : YUV
Chroma subsampling : 4:2:0
Bit depth : 8 bits
Scan type : Progressive
Bits/(Pixel*Frame) : 0.192
Stream size : 1.45 GiB (67%)
Writing library : x264 core 130 r2273 b3065e6
Encoding settings : cabac=1 / ref=10 / deblock=1:-3:-3 / analyse=0x3:0x113 / me=umh / subme=8 / psy=1 / psy_rd=1.00:0.00 / mixed_ref=1 / me_range=32 / chroma_me=1 / trellis=2 / 8x8dct=1 / cqm=0 / deadzone=21,11 / fast_pskip=0 / chroma_qp_offset=-2 / threads=6 / lookahead_threads=3 / sliced_threads=0 / nr=0 / decimate=1 / interlaced=0 / bluray_compat=0 / constrained_intra=0 / bframes=10 / b_pyramid=2 / b_adapt=2 / b_bias=0 / direct=3 / weightb=1 / open_gop=0 / weightp=2 / keyint=240 / keyint_min=23 / scenecut=40 / intra_refresh=0 / rc_lookahead=40 / rc=2pass / mbtree=1 / bitrate=2000 / ratetol=1.0 / qcomp=0.60 / qpmin=0 / qpmax=69 / qpstep=4 / cplxblur=20.0 / qblur=0.5 / ip_ratio=1.40 / aq=1:1.00
Language : English
Default : Yes
Forced : No

Audio #1
ID : 2
Format : AC-3
Format/Info : Audio Coding 3
Mode extension : CM (complete main)
Format settings, Endianness : Big
Codec ID : A_AC3
Duration : 1h 47mn
Bit rate mode : Constant
Bit rate : 448 Kbps
Channel(s) : 6 channels
Channel positions : Front: L C R, Side: L R, LFE
Sampling rate : 48.0 KHz
Bit depth : 16 bits
Compression mode : Lossy
Stream size : 343 MiB (15%)
Title : DVO
Language : Russian
Default : Yes
Forced : No

Audio #2
ID : 3
Format : AC-3
Format/Info : Audio Coding 3
Mode extension : CM (complete main)
Format settings, Endianness : Big
Codec ID : A_AC3
Duration : 1h 47mn
Bit rate mode : Constant
Bit rate : 448 Kbps
Channel(s) : 6 channels
Channel positions : Front: L C R, Side: L R, LFE
Sampling rate : 48.0 KHz
Bit depth : 16 bits
Compression mode : Lossy
Stream size : 343 MiB (15%)
Language : English
Default : No
Forced : No

Text #1
ID : 4
Format : UTF-8
Codec ID : S_TEXT/UTF8
Codec ID/Info : UTF-8 Plain Text
Language : English
Default : No
Forced : No

Text #2
ID : 5
Format : UTF-8
Codec ID : S_TEXT/UTF8
Codec ID/Info : UTF-8 Plain Text
Title : SDH
Language : English
Default : No
Forced : No

Menu
00:00:00.000 : en:00:00:00.000
00:09:28.276 : en:00:09:28.276
00:18:51.797 : en:00:18:51.797
00:29:30.102 : en:00:29:30.102
00:38:47.325 : en:00:38:47.325
00:47:48.365 : en:00:47:48.365
00:59:24.144 : en:00:59:24.144
01:11:10.600 : en:01:11:10.600
01:17:31.230 : en:01:17:31.230
01:24:07.668 : en:01:24:07.668
01:31:44.791 : en:01:31:44.791
01:39:29.088 : en:01:39:29.088



Релиз от: pic
pic


Информация
Информация Скриншоты Пиры Скачавшие Список файлов
Залил Оценка Просмотров Скачан Файлов
АРХАНГЕЛ 0 296351

Теги
триллер, драма

Похожие раздачи

Поиск не дал результатов.Больше похожих раздач →

Список комментариев
Комментарии отсутствуют

Добавить комментарий
Внимание
Гости не могут оставлять комментарии, авторизуйтесь.

Панель навигации

ПОПУЛЯРНЫЕ РАЗДАЧИ
скачать торрент Ледокол (2016) WEB-DLRip | iTunesскачать торрент Доктор Стрэндж (2016) TS
скачать торрент Ледокол (2016) WEB-DL 1080p | iTunesскачать торрент Дуэлянт (2016) CAMRip
скачать торрент Отряд самоубийц (2016) BDRip 1080p | Расширeнная версия | iTunesскачать торрент Джейсон Борн (2016) HDTV 720p | Чистый звук
скачать торрент Первый мститель: Противостояние (2016) BDRip | IMAX Edition | iTunesскачать торрент Тарзан. Легенда (2016) HDRip | iTunes
скачать торрент Dark Souls 3: Deluxe Edition (2016) PC | RePack от xatabскачать торрент Люди Икс: Апокалипсис / X-Men: Apocalypse (2016) BDRip 720p | Лицензия

Будь с нами!


Наши друзья 



Информация, расположенная на данном сервере, предназначена исключительно для частного использования и не может быть загружена/перенесена на другой компьютер. Ни владелец сайта, ни хостинг-провайдер, ни любые другие физические или юридические лица не могут нести никакой отвественностиза любое использование материалов данного сайта.

© 2012-2016 TRACK.KG.