Загрузить Adobe Flash Player
Как тут качать? :: Как встать на раздачу?

Скачать / Download torrent  
Хэш: c1556caa753281daf2b0b9d08b15229d649a7b2e
Добавлен: 18 марта 2015 в 22:31:45
Категория: Фильмы » Зарубежное кино » Триллеры / Криминал
Размер: 1.58 GB
Проверил: АРХАНГЕЛ 18 марта 2015 в 22:28:06

Раздают: 135 Качают: 44

Мисс Медоуз / Miss Meadows (2014) WEB-DLRip-AVC | P

pic

«А для других она плохая»

Название: Мисс Медоуз
Оригинальное название: Miss Meadows

Год выхода: 2014
Страна: США
Жанр: триллер, драма
Перевод: Профессиональное (многоголосое) Официальное

Режиссер: Карен Ли Хопкинс
В ролях: Кэти Холмс, Джеймс Бэдж Дэйл, Каллэн Мулвей, Стефен Бишоп, Тайлер Корбет, Сайда Аррика Экулона, Milly Hopkins, Джеймс Хеберт, Ава Колкер, Шарлотта Лабади

О фильме: История об учителе начальной школы, который в тайне является ярым борцом с преступностью.

pic pic pic



Качество: WEB-DLRip-AVC
Формат: MKV
Продолжительность: 01:27:57
Видео: AVC , 1024x576, 2000 Kbps
Звук: Russian: AC3, 192 Kb/s (2 ch) / English: AC3, 384 Kb/s (6 ch)
Субтитры: English

General
Unique ID : 170727975801462864596595744585127793252 (0x8071031898C089CFAF56B5367C379264)
Complete name : G:\ДИСК 2\01.ФИЛЬМЫ\Мисс Медоуз Miss Meadows (2014)\Miss.Meadows.2014.P.mkv
Format : Matroska
Format version : Version 4 / Version 2
File size : 1.58 GiB
Duration : 1h 27mn
Overall bit rate : 2 575 Kbps
Encoded date : UTC 2015-03-18 13:55:58
Writing application : mkvmerge v7.7.0 ('Six Voices') 64bit built on Feb 28 2015 23:39:33
Writing library : libebml v1.3.1 + libmatroska v1.4.2
DURATION : 01:27:46.926000000
NUMBER_OF_FRAMES : 1364
NUMBER_OF_BYTES : 51319
_STATISTICS_WRITING_APP : mkvmerge v7.7.0 ('Six Voices') 64bit built on Feb 28 2015 23:39:33
_STATISTICS_WRITING_DATE_UTC : 2015-03-18 13:55:58
_STATISTICS_TAGS : BPS DURATION NUMBER_OF_FRAMES NUMBER_OF_BYTES

Video
ID : 1
Format : AVC
Format/Info : Advanced Video Codec
Format profile : High@L4.1
Format settings, CABAC : Yes
Format settings, ReFrames : 7 frames
Codec ID : V_MPEG4/ISO/AVC
Duration : 1h 27mn
Bit rate : 2 000 Kbps
Width : 1 024 pixels
Height : 576 pixels
Display aspect ratio : 16:9
Frame rate mode : Constant
Frame rate : 23.976 fps
Color space : YUV
Chroma subsampling : 4:2:0
Bit depth : 8 bits
Scan type : Progressive
Bits/(Pixel*Frame) : 0.141
Stream size : 1.20 GiB (76%)
Writing library : x264 core 130 r2273 b3065e6
Encoding settings : cabac=1 / ref=7 / deblock=1:-3:-3 / analyse=0x3:0x113 / me=umh / subme=7 / psy=1 / psy_rd=1.00:0.00 / mixed_ref=1 / me_range=32 / chroma_me=1 / trellis=2 / 8x8dct=1 / cqm=0 / deadzone=21,11 / fast_pskip=0 / chroma_qp_offset=-2 / threads=6 / lookahead_threads=3 / sliced_threads=0 / nr=0 / decimate=1 / interlaced=0 / bluray_compat=0 / constrained_intra=0 / bframes=10 / b_pyramid=2 / b_adapt=2 / b_bias=0 / direct=3 / weightb=1 / open_gop=0 / weightp=2 / keyint=240 / keyint_min=23 / scenecut=40 / intra_refresh=0 / rc_lookahead=40 / rc=2pass / mbtree=1 / bitrate=2000 / ratetol=1.0 / qcomp=0.60 / qpmin=0 / qpmax=69 / qpstep=4 / cplxblur=20.0 / qblur=0.5 / ip_ratio=1.40 / aq=1:1.00
Language : English
Default : Yes
Forced : No

Audio #1
ID : 2
Format : AC-3
Format/Info : Audio Coding 3
Mode extension : CM (complete main)
Format settings, Endianness : Big
Codec ID : A_AC3
Duration : 1h 27mn
Bit rate mode : Constant
Bit rate : 192 Kbps
Channel(s) : 2 channels
Channel positions : Front: L R
Sampling rate : 48.0 KHz
Bit depth : 16 bits
Compression mode : Lossy
Stream size : 121 MiB (7%)
Language : Russian
Default : Yes
Forced : Yes

Audio #2
ID : 3
Format : AC-3
Format/Info : Audio Coding 3
Mode extension : CM (complete main)
Format settings, Endianness : Big
Codec ID : A_AC3
Duration : 1h 27mn
Bit rate mode : Constant
Bit rate : 384 Kbps
Channel(s) : 6 channels
Channel positions : Front: L C R, Side: L R, LFE
Sampling rate : 48.0 KHz
Bit depth : 16 bits
Compression mode : Lossy
Stream size : 242 MiB (15%)
Language : English
Default : No
Forced : No

Text
ID : 4
Format : UTF-8
Codec ID : S_TEXT/UTF8
Codec ID/Info : UTF-8 Plain Text
Language : English
Default : No
Forced : No

Menu
00:00:00.000 : en:Chapter 01
00:08:55.000 : en:Chapter 02
00:19:03.000 : en:Chapter 03
00:31:32.000 : en:Chapter 04
00:42:14.000 : en:Chapter 05
00:51:06.000 : en:Chapter 06
01:00:14.000 : en:Chapter 07
01:09:35.000 : en:Chapter 08
01:17:56.000 : en:Chapter 09
01:24:40.000 : en:Chapter 10



Релиз от: pic
pic


Информация
Информация Скриншоты Пиры Скачавшие Список файлов
Залил Оценка Просмотров Скачан Файлов
АРХАНГЕЛ 0 346361

Теги
триллер, драма

Похожие раздачи

Мисс Медоуз / Miss Meadows (2014) HDRip 1.37 GB

Мисс Медоуз / Miss Meadows (2014) WEB-DL 720p | НТВ+ 2.76 GB

Больше похожих раздач →

Список комментариев
Комментарии отсутствуют

Добавить комментарий
Внимание
Гости не могут оставлять комментарии, авторизуйтесь.

Панель навигации

ПОПУЛЯРНЫЕ РАЗДАЧИ
скачать торрент Ледокол (2016) WEB-DLRip | iTunesскачать торрент Доктор Стрэндж (2016) TS
скачать торрент Ледокол (2016) WEB-DL 1080p | iTunesскачать торрент Дуэлянт (2016) CAMRip
скачать торрент Отряд самоубийц (2016) BDRip 1080p | Расширeнная версия | iTunesскачать торрент Джейсон Борн (2016) HDTV 720p | Чистый звук
скачать торрент Первый мститель: Противостояние (2016) BDRip | IMAX Edition | iTunesскачать торрент Тарзан. Легенда (2016) HDRip | iTunes
скачать торрент Dark Souls 3: Deluxe Edition (2016) PC | RePack от xatabскачать торрент Люди Икс: Апокалипсис / X-Men: Apocalypse (2016) BDRip 720p | Лицензия

Будь с нами!


Наши друзья 



Информация, расположенная на данном сервере, предназначена исключительно для частного использования и не может быть загружена/перенесена на другой компьютер. Ни владелец сайта, ни хостинг-провайдер, ни любые другие физические или юридические лица не могут нести никакой отвественностиза любое использование материалов данного сайта.

© 2012-2016 TRACK.KG.