Загрузить Adobe Flash Player
Как тут качать? :: Как встать на раздачу?

Скачать / Download torrent  
Хэш: 527eb8208feab96f837429d57e3de2c923a61a9f
Добавлен: 7 марта 2015 в 00:02:51
Категория: Фильмы » Зарубежное кино » Мелодрамы / Драмы
Размер: 1.76 GB
Проверил: АРХАНГЕЛ 7 марта 2015 в 00:02:51

Раздают: 78 Качают: 14

Большие глаза / Big Eyes (2014) WEB-DLRip-AVC | D | iTunes

pic

«Она создала это. Он продал это. И они купили это»

Название: Большие глаза
Оригинальное название: Big Eyes

Год выхода: 2014
Страна: США, Канада / Weinstein Company, The, Silverwood Films, Tim Burton Productions
Жанр: Драма, биография
Перевод: Дублированный iTunes

Режиссер: Тим Бёртон
В ролях: Эми Адамс, Кристоф Вальц, Кристен Риттер, Джейсон Шварцман, Дэнни Хьюстон, Теренс Стэмп, Джон Полито, Элизабетта Фантоне, Джеймс Саито, Гуидо Фурлани

О фильме: Яркая и цветущая Америка 50-х. В сочных красках Сан-Франциско зарождается то, что разрушит традиционный взгляд на искусство и бесповоротно изменит то, как выглядит наша жизнь. Появившийся из ниоткуда художник Уолтер Кин придумал поп-арт. Его необычные картины, изображающие трогательных детей с огромными глазами, произвели настоящий фурор и буквально заполонили весь мир. Их печатают на календарях, открытках, домохозяйки щеголяют в фартуках с их изображением. Уолтер становится королем современного искусства, одним из самых известных арт-деятелей планеты. Но на пике славы художника его скромная супруга Маргарет вдруг утверждает, что Уолтер — мошенник, и именно она — автор знаменитых картин. Неожиданно открываются шокирующие подробности жизни четы Кин. Весь мир замер в ожидании ответа на вопрос: кто же все-таки тот гений, чьи смелые и оригинальные картины украшают теперь каждую гостиную от Парижа до Аляски?

pic pic pic pic

Качество: WEB-DLRip-AVC
Формат: MKV
Продолжительность: 01:45:44
Видео: AVC, 1024x560, 2000 Kbps
Звук: AC3, 6 ch, 384 Kbps

General
Unique ID : 189904575534970149933042727073727200415 (0x8EDE4A75CB475266A7B413AD70613C9F)
Complete name : G:\ДИСК 2\01.ФИЛЬМЫ\Большие глаза Big Eyes (2014)\B0lshie.Gl4ga.2014.D.WEB-DLRip-AVC.mkv
Format : Matroska
Format version : Version 4 / Version 2
File size : 1.76 GiB
Duration : 1h 45mn
Overall bit rate : 2 385 Kbps
Encoded date : UTC 2015-03-06 17:08:17
Writing application : mkvmerge v7.5.0 ('Glass Culture') 64bit built on Jan 4 2015 16:48:44
Writing library : libebml v1.3.1 + libmatroska v1.4.2
DURATION : 01:45:36.640000000
NUMBER_OF_FRAMES : 198020
NUMBER_OF_BYTES : 304158720
_STATISTICS_WRITING_APP : mkvmerge v7.5.0 ('Glass Culture') 64bit built on Jan 4 2015 16:48:44
_STATISTICS_WRITING_DATE_UTC : 2015-03-06 17:08:17
_STATISTICS_TAGS : BPS DURATION NUMBER_OF_FRAMES NUMBER_OF_BYTES

Video
ID : 1
Format : AVC
Format/Info : Advanced Video Codec
Format profile : High@L4.1
Format settings, CABAC : Yes
Format settings, ReFrames : 9 frames
Codec ID : V_MPEG4/ISO/AVC
Duration : 1h 45mn
Bit rate : 2 000 Kbps
Width : 1 024 pixels
Height : 560 pixels
Display aspect ratio : 1.85:1
Frame rate mode : Constant
Frame rate : 24.000 fps
Color space : YUV
Chroma subsampling : 4:2:0
Bit depth : 8 bits
Scan type : Progressive
Bits/(Pixel*Frame) : 0.145
Stream size : 1.44 GiB (82%)
Title : Release by АРХАНГЕЛ
Writing library : x264 core 125 r2200 999b753
Encoding settings : cabac=1 / ref=9 / deblock=1:-3:-3 / analyse=0x3:0x113 / me=umh / subme=9 / psy=1 / psy_rd=1.00:0.00 / mixed_ref=1 / me_range=32 / chroma_me=1 / trellis=2 / 8x8dct=1 / cqm=0 / deadzone=21,11 / fast_pskip=0 / chroma_qp_offset=-2 / threads=6 / lookahead_threads=1 / sliced_threads=0 / nr=0 / decimate=1 / interlaced=0 / bluray_compat=0 / constrained_intra=0 / bframes=9 / b_pyramid=2 / b_adapt=2 / b_bias=0 / direct=3 / weightb=1 / open_gop=0 / weightp=2 / keyint=240 / keyint_min=23 / scenecut=40 / intra_refresh=0 / rc_lookahead=40 / rc=2pass / mbtree=1 / bitrate=2000 / ratetol=1.0 / qcomp=0.60 / qpmin=0 / qpmax=69 / qpstep=4 / cplxblur=20.0 / qblur=0.5 / ip_ratio=1.40 / aq=1:1.00
Language : English
Default : Yes
Forced : No

Audio
ID : 2
Format : AC-3
Format/Info : Audio Coding 3
Mode extension : CM (complete main)
Format settings, Endianness : Big
Codec ID : A_AC3
Duration : 1h 45mn
Bit rate mode : Constant
Bit rate : 384 Kbps
Channel(s) : 6 channels
Channel positions : Front: L C R, Side: L R, LFE
Sampling rate : 48.0 KHz
Bit depth : 16 bits
Compression mode : Lossy
Stream size : 290 MiB (16%)
Title : Дублированный [iTunes]
Language : Russian
Default : Yes
Forced : No



Релиз от: pic
pic


Информация
Информация Скриншоты Пиры Скачавшие Список файлов
Залил Оценка Просмотров Скачан Файлов
АРХАНГЕЛ +1 279321

Теги
драма, биография

Похожие раздачи

Большие глаза / Big Eyes (2014) BDRip 720p | Лицензия 7.30 GB

Большие глаза / Big Eyes (2014) BDRip 1080p | Лицензия 7.93 GB

Большие глаза / Big Eyes (2014) HDRip | Лицензия 1.37 GB

Больше похожих раздач →

Список комментариев
Комментарии отсутствуют

Добавить комментарий
Внимание
Гости не могут оставлять комментарии, авторизуйтесь.

Панель навигации

ПОПУЛЯРНЫЕ РАЗДАЧИ
скачать торрент Ледокол (2016) WEB-DLRip | iTunesскачать торрент Доктор Стрэндж (2016) TS
скачать торрент Ледокол (2016) WEB-DL 1080p | iTunesскачать торрент Дуэлянт (2016) CAMRip
скачать торрент Отряд самоубийц (2016) BDRip 1080p | Расширeнная версия | iTunesскачать торрент Джейсон Борн (2016) HDTV 720p | Чистый звук
скачать торрент Первый мститель: Противостояние (2016) BDRip | IMAX Edition | iTunesскачать торрент Тарзан. Легенда (2016) HDRip | iTunes
скачать торрент Полтора шпиона (2016) BDRip 1080p | Лицензияскачать торрент Джейсон Борн (2016) HDTV 1080p | Чистый звук

Будь с нами!


Наши друзья 



Информация, расположенная на данном сервере, предназначена исключительно для частного использования и не может быть загружена/перенесена на другой компьютер. Ни владелец сайта, ни хостинг-провайдер, ни любые другие физические или юридические лица не могут нести никакой отвественностиза любое использование материалов данного сайта.

© 2012-2016 TRACK.KG.