Загрузить Adobe Flash Player
Как тут качать? :: Как встать на раздачу?

Скачать / Download torrent  
Хэш: b0e35df96752944a65434853300c59f3b2d3174f
Добавлен: 2 марта 2015 в 23:03:20
Категория: Фильмы » Зарубежное кино » Фэнтези
Размер: 1.50 GB
Проверил: АРХАНГЕЛ 2 марта 2015 в 23:03:20

Раздают: 97 Качают: 45

Красная шапочка / Little Red Riding Hood (2015) HDRip-AVC | L2

pic

Название: Красная шапочка
Оригинальное название: Little Red Riding Hood

Год выхода: 2015
Страна: США / iDiC Entertainment
Жанр: фэнтези, ужасы
Перевод: Любительское (двухголосое) DeadSno & den904

Режиссер: Рене Перез
В ролях: Louie Ambriz, Роберт Амстлер, Роберт С. Диксон, Alanna Forte, Колин Хасси, Ирен Леви, Джейсон Джей Прадо, Мэрилин Робран, Джон Скудери

О фильме: Хоррор-версия классической сказки братьев Гримм с небольшим налетом бредового сюра.

pic pic pic

Качество: HDRip-AVC
Формат: MKV
Продолжительность: 01:21:13
Видео: AVC, 1024x576, 2000 Kbps
Звук: Russian: AC3, 192 kbps (2 ch) / English: AC3, 448 kbps (6 ch)

General
Unique ID : 252854243058747456032320253912724723693 (0xBE39F4B117BEDDE39DE747CE3662D7ED)
Complete name : G:\ДИСК 2\01.ФИЛЬМЫ\Красная шапочка Little Red Riding Hood (2015)\Новая папка\Krasnaja.shapochka.2015.L2.HDRip-AVC.mkv
Format : Matroska
Format version : Version 4 / Version 2
File size : 1.50 GiB
Duration : 1h 21mn
Overall bit rate : 2 642 Kbps
Encoded date : UTC 2015-03-02 16:27:13
Writing application : mkvmerge v7.5.0 ('Glass Culture') 64bit built on Jan 4 2015 16:48:44
Writing library : libebml v1.3.1 + libmatroska v1.4.2
DURATION : 01:21:13.504000000
NUMBER_OF_FRAMES : 152297
NUMBER_OF_BYTES : 272916224
_STATISTICS_WRITING_APP : mkvmerge v7.5.0 ('Glass Culture') 64bit built on Jan 4 2015 16:48:44
_STATISTICS_WRITING_DATE_UTC : 2015-03-02 16:27:13
_STATISTICS_TAGS : BPS DURATION NUMBER_OF_FRAMES NUMBER_OF_BYTES

Video
ID : 1
Format : AVC
Format/Info : Advanced Video Codec
Format profile : High@L4.1
Format settings, CABAC : Yes
Format settings, ReFrames : 9 frames
Codec ID : V_MPEG4/ISO/AVC
Duration : 1h 21mn
Bit rate : 2 000 Kbps
Width : 1 024 pixels
Height : 576 pixels
Display aspect ratio : 16:9
Frame rate mode : Constant
Frame rate : 23.976 fps
Color space : YUV
Chroma subsampling : 4:2:0
Bit depth : 8 bits
Scan type : Progressive
Bits/(Pixel*Frame) : 0.141
Stream size : 1.11 GiB (74%)
Title : Release by АРХАНГЕЛ
Writing library : x264 core 125 r2200 999b753
Encoding settings : cabac=1 / ref=9 / deblock=1:-3:-3 / analyse=0x3:0x113 / me=umh / subme=9 / psy=1 / psy_rd=1.00:0.00 / mixed_ref=1 / me_range=32 / chroma_me=1 / trellis=2 / 8x8dct=1 / cqm=0 / deadzone=21,11 / fast_pskip=0 / chroma_qp_offset=-2 / threads=6 / lookahead_threads=1 / sliced_threads=0 / nr=0 / decimate=1 / interlaced=0 / bluray_compat=0 / constrained_intra=0 / bframes=9 / b_pyramid=2 / b_adapt=2 / b_bias=0 / direct=3 / weightb=1 / open_gop=0 / weightp=2 / keyint=240 / keyint_min=23 / scenecut=40 / intra_refresh=0 / rc_lookahead=40 / rc=2pass / mbtree=1 / bitrate=2000 / ratetol=1.0 / qcomp=0.60 / qpmin=0 / qpmax=69 / qpstep=4 / cplxblur=20.0 / qblur=0.5 / ip_ratio=1.40 / aq=1:1.00
Language : English
Default : Yes
Forced : No

Audio #1
ID : 2
Format : AC-3
Format/Info : Audio Coding 3
Mode extension : CM (complete main)
Format settings, Endianness : Big
Codec ID : A_AC3
Duration : 1h 21mn
Bit rate mode : Constant
Bit rate : 192 Kbps
Channel(s) : 2 channels
Channel positions : Front: L R
Sampling rate : 48.0 KHz
Bit depth : 16 bits
Compression mode : Lossy
Stream size : 112 MiB (7%)
Title : [DeadSno & den904]
Language : Russian
Default : Yes
Forced : No

Audio #2
ID : 3
Format : AC-3
Format/Info : Audio Coding 3
Mode extension : CM (complete main)
Format settings, Endianness : Big
Codec ID : A_AC3
Duration : 1h 21mn
Bit rate mode : Constant
Bit rate : 448 Kbps
Channel(s) : 6 channels
Channel positions : Front: L C R, Side: L R, LFE
Sampling rate : 48.0 KHz
Bit depth : 16 bits
Compression mode : Lossy
Stream size : 260 MiB (17%)
Language : English
Default : No
Forced : No

Menu
00:00:00.000 : en:Chapter 01
00:09:59.765 : en:Chapter 02
00:20:00.365 : en:Chapter 03
00:30:00.131 : en:Chapter 04
00:39:59.897 : en:Chapter 05
00:49:59.663 : en:Chapter 06
01:00:00.263 : en:Chapter 07
01:10:00.029 : en:Chapter 08
01:19:59.795 : en:Chapter 09



Релиз от: pic
pic


Информация
Информация Скриншоты Пиры Скачавшие Список файлов
Залил Оценка Просмотров Скачан Файлов
АРХАНГЕЛ 0 632441

Теги
фэнтези, ужасы

Похожие раздачи

Серый волк энд Красная шапочка (1990) DVDRip | Реставрация "Крупный план" 313.00 MB

Красная шапочка / Little Red Riding Hood (1997) [короткометражка, чёрная комедия] DVDRip | VO {den904} + Eng 249.33 MB

Красная шапочка (2012) [Комедия, мюзикл] SATRip-AVC 1.46 GB

Машины сказки - Красная шапочка (2012) [короткометражный мультфильм] DVDScr 90.53 MB

Больше похожих раздач →

Список комментариев
Комментарии отсутствуют

Добавить комментарий
Внимание
Гости не могут оставлять комментарии, авторизуйтесь.

Панель навигации

ПОПУЛЯРНЫЕ РАЗДАЧИ
скачать торрент Ледокол (2016) WEB-DLRip | iTunesскачать торрент Доктор Стрэндж (2016) TS
скачать торрент Ледокол (2016) WEB-DL 1080p | iTunesскачать торрент Дуэлянт (2016) CAMRip
скачать торрент Отряд самоубийц (2016) BDRip 1080p | Расширeнная версия | iTunesскачать торрент Джейсон Борн (2016) HDTV 720p | Чистый звук
скачать торрент Первый мститель: Противостояние (2016) BDRip | IMAX Edition | iTunesскачать торрент Тарзан. Легенда (2016) HDRip | iTunes
скачать торрент Dark Souls 3: Deluxe Edition (2016) PC | RePack от xatabскачать торрент Люди Икс: Апокалипсис / X-Men: Apocalypse (2016) BDRip 720p | Лицензия

Будь с нами!


Наши друзья 



Информация, расположенная на данном сервере, предназначена исключительно для частного использования и не может быть загружена/перенесена на другой компьютер. Ни владелец сайта, ни хостинг-провайдер, ни любые другие физические или юридические лица не могут нести никакой отвественностиза любое использование материалов данного сайта.

© 2012-2016 TRACK.KG.