Загрузить Adobe Flash Player
Как тут качать? :: Как встать на раздачу?

Скачать / Download torrent  
Хэш: 6d7f9551ff5285d91ba15a4ec4eed69f577b6b96
Добавлен: 25 февраля 2015 в 23:48:47
Категория: Фильмы » Зарубежное кино » Приключения / Семейные
Размер: 2.32 GB
Проверил: АРХАНГЕЛ 25 февраля 2015 в 23:48:47

Раздают: 95 Качают: 35

Легенда о Красном Орле / Aguila Roja, la pelicula (2011) HDRip-AVC | P | Лицензия

pic

Название: Легенда о Красном Орле
Оригинальное название: Aguila Roja, la pelicula

Год выхода: 2011
Страна: Испания / Globo Media S.A., Instituto de la Cinematografia y de las Artes Audiovisuales (ICAA)...
Жанр: приключения
Перевод: Профессиональный (многоголосый) Лицензия

Режиссер: Хосе Рамон Айерра
В ролях: Хавьер Гутиеррез, Франсис Лоренсо, Инма Куэста, Мириам Галлего, Роберто Аламо, Пепа Аниорте, Сантьяго Молеро, Ксабьер Элорриага, Хосе Анхель Эхидо

О фильме: XVII век, встреча представителей самых влиятельных стран того времени: Франции, Англии и Португалии. Для участия в ней приехал даже Папа Римский. Хотя все эти страны собрались для поиска путей примирения испанцев с их противниками, реальные мотивы встречи состоят в намерении атаковать королевство Испании. Чтобы гарантировать успех заговора, возглавляемого маркизой Сантиллана, совет решает с помощью кровожадного наемника покончить с непокорным Красным Орлом…

pic pic pic

Качество: HDRip-AVC
Формат: MKV
Продолжительность: 01:58:19
Видео: AVC, 1008x432, 2100 Kbps
Звук: Русский: AC3, 6 ch, 256 Kbps / Испанский: AC3, 6 ch, 448 Kbps

General
Unique ID : 233826485038374230960652825869927910183 (0xAFE957CA6EABC1D78B3B3BF81DFD0B27)
Complete name : G:\ДИСК 2\01.ФИЛЬМЫ\Красный орел Aguila Roja, la pelicula (2011)\Legenda.o.Krasnom.Orle.2011.P.HDRip-AVC.mkv
Format : Matroska
Format version : Version 4 / Version 2
File size : 2.32 GiB
Duration : 1h 58mn
Overall bit rate : 2 805 Kbps
Movie name : Legenda.o.Krasnom.Orle.2011.P.BDRip.720p.IRONCLUB
Encoded date : UTC 2015-02-25 16:45:31
Writing application : mkvmerge v7.5.0 ('Glass Culture') 64bit built on Jan 4 2015 16:48:44
Writing library : libebml v1.3.1 + libmatroska v1.4.2
DURATION : 01:58:19.040000000
NUMBER_OF_FRAMES : 221845
NUMBER_OF_BYTES : 397546240
_STATISTICS_WRITING_APP : mkvmerge v7.5.0 ('Glass Culture') 64bit built on Jan 4 2015 16:48:44
_STATISTICS_WRITING_DATE_UTC : 2015-02-25 16:45:31
_STATISTICS_TAGS : BPS DURATION NUMBER_OF_FRAMES NUMBER_OF_BYTES

Video
ID : 1
Format : AVC
Format/Info : Advanced Video Codec
Format profile : High@L4.1
Format settings, CABAC : Yes
Format settings, ReFrames : 6 frames
Codec ID : V_MPEG4/ISO/AVC
Duration : 1h 58mn
Bit rate : 2 100 Kbps
Width : 1 008 pixels
Height : 432 pixels
Display aspect ratio : 2.35:1
Frame rate mode : Constant
Frame rate : 25.000 fps
Color space : YUV
Chroma subsampling : 4:2:0
Bit depth : 8 bits
Scan type : Progressive
Bits/(Pixel*Frame) : 0.193
Stream size : 1.69 GiB (73%)
Title : Release by АРХАНГЕЛ
Writing library : x264 core 125 r2200 999b753
Encoding settings : cabac=1 / ref=6 / deblock=1:-3:-3 / analyse=0x3:0x113 / me=umh / subme=9 / psy=1 / psy_rd=1.00:0.00 / mixed_ref=1 / me_range=16 / chroma_me=1 / trellis=2 / 8x8dct=1 / cqm=0 / deadzone=21,11 / fast_pskip=0 / chroma_qp_offset=-2 / threads=6 / lookahead_threads=1 / sliced_threads=0 / nr=0 / decimate=1 / interlaced=0 / bluray_compat=0 / constrained_intra=0 / bframes=4 / b_pyramid=2 / b_adapt=2 / b_bias=0 / direct=3 / weightb=1 / open_gop=0 / weightp=2 / keyint=250 / keyint_min=23 / scenecut=40 / intra_refresh=0 / rc_lookahead=40 / rc=2pass / mbtree=1 / bitrate=2100 / ratetol=1.0 / qcomp=0.60 / qpmin=0 / qpmax=69 / qpstep=4 / cplxblur=20.0 / qblur=0.5 / ip_ratio=1.40 / aq=1:1.00
Language : English
Default : Yes
Forced : No

Audio #1
ID : 2
Format : AC-3
Format/Info : Audio Coding 3
Mode extension : CM (complete main)
Format settings, Endianness : Big
Codec ID : A_AC3
Duration : 1h 58mn
Bit rate mode : Constant
Bit rate : 256 Kbps
Channel(s) : 6 channels
Channel positions : Front: L C R, Side: L R, LFE
Sampling rate : 48.0 KHz
Bit depth : 16 bits
Compression mode : Lossy
Stream size : 217 MiB (9%)
Title : MVO R5
Language : Russian
Default : Yes
Forced : No

Audio #2
ID : 3
Format : AC-3
Format/Info : Audio Coding 3
Mode extension : CM (complete main)
Format settings, Endianness : Big
Codec ID : A_AC3
Duration : 1h 58mn
Bit rate mode : Constant
Bit rate : 448 Kbps
Channel(s) : 6 channels
Channel positions : Front: L C R, Side: L R, LFE
Sampling rate : 48.0 KHz
Bit depth : 16 bits
Compression mode : Lossy
Stream size : 379 MiB (16%)
Title : Spanish DD 5.1
Language : Spanish
Default : No
Forced : No

Menu
00:00:00.000 : en:Chapter.01
00:09:43.120 : en:Chapter.02
00:19:33.360 : en:Chapter.03
00:29:04.840 : en:Chapter.04
00:41:09.680 : en:Chapter.05
00:50:45.640 : en:Chapter.06
01:00:12.840 : en:Chapter.07
01:10:56.520 : en:Chapter.08
01:19:51.200 : en:Chapter.09
01:30:15.960 : en:Chapter.10
01:40:31.120 : en:Chapter.11
01:48:08.240 : en:Chapter.12



Релиз от: pic
pic


Информация
Информация Скриншоты Пиры Скачавшие Список файлов
Залил Оценка Просмотров Скачан Файлов
АРХАНГЕЛ 0 549441

Теги
приключения

Похожие раздачи

Кубо. Легенда о самурае (2016) HDRip | Звук с TS 1.46 GB

Тарзан. Легенда (2016) HDRip | iTunes 1.37 GB

Da Gudda Jazz - Легенда (2016) MP3, 320 kbps 101.02 MB

Тарзан. Легенда (2016) HDTV 1080p | Чистый звук 3.30 GB

Тарзан. Легенда (2016) HDTV 720p | Чистый звук 3.30 GB

Смешарики. Легенда о золотом драконе (2016) BDRip 1080p | Лицензия 7.29 GB

Смешарики. Легенда о золотом драконе (2016) BDRip 720p | Лицензия 3.93 GB

Смешарики. Легенда о золотом драконе (2016) НDRip | Лицензия 1.37 GB

Легенда / Legend (2015) UHDRip 2160p (4K) | Лицензия 11.08 GB

Легенда / Legend (2015) BDRip 1080p | Лицензия 9.10 GB

Больше похожих раздач →

Список комментариев
Комментарии отсутствуют

Добавить комментарий
Внимание
Гости не могут оставлять комментарии, авторизуйтесь.

Панель навигации

ПОПУЛЯРНЫЕ РАЗДАЧИ
скачать торрент Ледокол (2016) WEB-DLRip | iTunesскачать торрент Доктор Стрэндж (2016) TS
скачать торрент Ледокол (2016) WEB-DL 1080p | iTunesскачать торрент Дуэлянт (2016) CAMRip
скачать торрент Отряд самоубийц (2016) BDRip 1080p | Расширeнная версия | iTunesскачать торрент Джейсон Борн (2016) HDTV 720p | Чистый звук
скачать торрент Первый мститель: Противостояние (2016) BDRip | IMAX Edition | iTunesскачать торрент Тарзан. Легенда (2016) HDRip | iTunes
скачать торрент Dark Souls 3: Deluxe Edition (2016) PC | RePack от xatabскачать торрент Люди Икс: Апокалипсис / X-Men: Apocalypse (2016) BDRip 720p | Лицензия

Будь с нами!


Наши друзья 



Информация, расположенная на данном сервере, предназначена исключительно для частного использования и не может быть загружена/перенесена на другой компьютер. Ни владелец сайта, ни хостинг-провайдер, ни любые другие физические или юридические лица не могут нести никакой отвественностиза любое использование материалов данного сайта.

© 2012-2016 TRACK.KG.