Загрузить Adobe Flash Player
Как тут качать? :: Как встать на раздачу?

Скачать / Download torrent  
Хэш: 9cc31eb99625b79b5868b805a3dea7fcd52805c4
Добавлен: 24 февраля 2015 в 12:29:26
Категория: Фильмы » Зарубежное кино » Фэнтези
Размер: 2.33 GB
Проверил: АРХАНГЕЛ 24 февраля 2015 в 12:29:26

Раздают: 78 Качают: 12

Таймлесс 2: Сапфировая книга / Saphirblau (2014) HDRip-AVC | Лицензия

pic

«Любовь будет вечной, если ты повелитель времени»

Название: Таймлесс 2: Сапфировая книга
Оригинальное название: Saphirblau

Год выхода: 2014
Страна: Германия / ARRI Film & TV Services, Lieblingsfilm, Tele-Munchen (TMG)...
Жанр: фантастика, фэнтези, драма, мелодрама, детектив
Перевод: Профессиональное (многоголосое) Лицензия]

Режиссер: Феликс Фуксштайнер, Катарина Шёде
В ролях: Мария Эрих, Яннис Нивёнер, Петер Симонишек, Йозефина Пройсс, Флориан Бартоломай, Руфус Бек, Лаура Берлин, Сандра Боргманн, Юстина дель Корте, Вероника Феррес

О фильме: Приключения юной Гвендолин Шеферд продолжаются. Она начинает все больше узнавать о тайнах мира путешественников во времени. Ей предстоит разгадать больше загадок и научиться быть светской леди для приемов в 18 веке. Гвендолин узнает больше о своей семье, в первую очередь о ее дедушке Лукасе. Также Гвен подозревает, что Гидеон скрывает что-то от нее, возможно какую-то сокровенную страшную тайну... Но с появлением нового, слегка надоедливого друга Ксемериуса, девушке становится легче преодолевать все препятствия на пути.

pic pic pic

Качество: HDRip-AVC
Формат: MKV
Продолжительность: 01:56:06
Видео: AVC, 1008x432, 2100 Kbps
Звук: Russian / German: AC3, 384 kbps (6 ch)

General
Unique ID : 217519947553755803701935572371537155604 (0xA3A4D16BB1B22DEFAEDD137BDAD85614)
Complete name : G:\ДИСК 2\01.ФИЛЬМЫ\Таймлесс 2 Сапфировая книга Saphirblau (2014)\Tajmless.2.2014.P.HDRip-AVC.mkv
Format : Matroska
Format version : Version 4 / Version 2
File size : 2.33 GiB
Duration : 1h 56mn
Overall bit rate : 2 870 Kbps
Encoded date : UTC 2015-02-24 05:36:10
Writing application : mkvmerge v7.5.0 ('Glass Culture') 64bit built on Jan 4 2015 16:48:44
Writing library : libebml v1.3.1 + libmatroska v1.4.2
DURATION : 01:56:06.144000000
NUMBER_OF_FRAMES : 217692
NUMBER_OF_BYTES : 334374912
_STATISTICS_WRITING_APP : mkvmerge v7.5.0 ('Glass Culture') 64bit built on Jan 4 2015 16:48:44
_STATISTICS_WRITING_DATE_UTC : 2015-02-24 05:36:10
_STATISTICS_TAGS : BPS DURATION NUMBER_OF_FRAMES NUMBER_OF_BYTES

Video
ID : 1
Format : AVC
Format/Info : Advanced Video Codec
Format profile : High@L4.1
Format settings, CABAC : Yes
Format settings, ReFrames : 6 frames
Codec ID : V_MPEG4/ISO/AVC
Duration : 1h 56mn
Bit rate : 2 100 Kbps
Width : 1 008 pixels
Height : 432 pixels
Display aspect ratio : 2.35:1
Frame rate mode : Constant
Frame rate : 24.000 fps
Color space : YUV
Chroma subsampling : 4:2:0
Bit depth : 8 bits
Scan type : Progressive
Bits/(Pixel*Frame) : 0.201
Stream size : 1.66 GiB (71%)
Title : Release by АРХАНГЕЛ
Writing library : x264 core 125 r2200 999b753
Encoding settings : cabac=1 / ref=6 / deblock=1:-3:-3 / analyse=0x3:0x113 / me=umh / subme=9 / psy=1 / psy_rd=1.00:0.00 / mixed_ref=1 / me_range=32 / chroma_me=1 / trellis=2 / 8x8dct=1 / cqm=0 / deadzone=21,11 / fast_pskip=0 / chroma_qp_offset=-2 / threads=6 / lookahead_threads=1 / sliced_threads=0 / nr=0 / decimate=1 / interlaced=0 / bluray_compat=0 / constrained_intra=0 / bframes=4 / b_pyramid=2 / b_adapt=2 / b_bias=0 / direct=3 / weightb=1 / open_gop=0 / weightp=2 / keyint=240 / keyint_min=23 / scenecut=40 / intra_refresh=0 / rc_lookahead=40 / rc=2pass / mbtree=1 / bitrate=2100 / ratetol=1.0 / qcomp=0.60 / qpmin=0 / qpmax=69 / qpstep=4 / cplxblur=20.0 / qblur=0.5 / ip_ratio=1.40 / aq=1:1.00
Language : English
Default : Yes
Forced : No

Audio #1
ID : 2
Format : AC-3
Format/Info : Audio Coding 3
Mode extension : CM (complete main)
Format settings, Endianness : Big
Codec ID : A_AC3
Duration : 1h 56mn
Bit rate mode : Constant
Bit rate : 384 Kbps
Channel(s) : 6 channels
Channel positions : Front: L C R, Side: L R, LFE
Sampling rate : 48.0 KHz
Bit depth : 16 bits
Compression mode : Lossy
Stream size : 319 MiB (13%)
Title : MVO (Лицензия)
Language : Russian
Default : Yes
Forced : No

Audio #2
ID : 3
Format : AC-3
Format/Info : Audio Coding 3
Mode extension : CM (complete main)
Format settings, Endianness : Big
Codec ID : A_AC3
Duration : 1h 56mn
Bit rate mode : Constant
Bit rate : 384 Kbps
Channel(s) : 6 channels
Channel positions : Front: L C R, Side: L R, LFE
Sampling rate : 48.0 KHz
Bit depth : 16 bits
Compression mode : Lossy
Stream size : 319 MiB (13%)
Language : German
Default : No
Forced : No

Menu
00:00:00.000 : en:00:00:00.000
00:11:35.542 : en:00:11:35.542
00:21:12.667 : en:00:21:12.667
00:32:21.417 : en:00:32:21.417
00:42:31.125 : en:00:42:31.125
00:52:59.958 : en:00:52:59.958
01:03:56.750 : en:01:03:56.750
01:11:59.958 : en:01:11:59.958
01:24:29.583 : en:01:24:29.583
01:35:17.333 : en:01:35:17.333
01:45:26.083 : en:01:45:26.083
01:48:29.667 : en:01:48:29.667



Релиз от: pic
pic


Информация
Информация Скриншоты Пиры Скачавшие Список файлов
Залил Оценка Просмотров Скачан Файлов
АРХАНГЕЛ 0 3881541

Теги
фантастика, фэнтези, драма, мелодрама, детектив

Похожие раздачи

Таймлесс 2: Сапфировая книга / Saphirblau (2014) HDRip | Лицензия 1.46 GB

Таймлесс. Рубиновая книга / Rubinrot (2013) [Фантастика, Фэнтези, Приключения] DVDRip | Dub {Лицензия} + Original Ger 2.18 GB

Таймлесс. Рубиновая книга / Rubinrot (2013) [фантастика, фэнтези, приключения] DVDRip | Dub {лицензия} 2.27 GB

Больше похожих раздач →

Список комментариев
Комментарии отсутствуют

Добавить комментарий
Внимание
Гости не могут оставлять комментарии, авторизуйтесь.

Панель навигации

ПОПУЛЯРНЫЕ РАЗДАЧИ
скачать торрент Ледокол (2016) WEB-DLRip | iTunesскачать торрент Доктор Стрэндж (2016) TS
скачать торрент Ледокол (2016) WEB-DL 1080p | iTunesскачать торрент Дуэлянт (2016) CAMRip
скачать торрент Отряд самоубийц (2016) BDRip 1080p | Расширeнная версия | iTunesскачать торрент Джейсон Борн (2016) HDTV 720p | Чистый звук
скачать торрент Первый мститель: Противостояние (2016) BDRip | IMAX Edition | iTunesскачать торрент Тарзан. Легенда (2016) HDRip | iTunes
скачать торрент Dark Souls 3: Deluxe Edition (2016) PC | RePack от xatabскачать торрент Люди Икс: Апокалипсис / X-Men: Apocalypse (2016) BDRip 720p | Лицензия

Будь с нами!


Наши друзья 



Информация, расположенная на данном сервере, предназначена исключительно для частного использования и не может быть загружена/перенесена на другой компьютер. Ни владелец сайта, ни хостинг-провайдер, ни любые другие физические или юридические лица не могут нести никакой отвественностиза любое использование материалов данного сайта.

© 2012-2016 TRACK.KG.