Загрузить Adobe Flash Player
Как тут качать? :: Как встать на раздачу?

Скачать / Download torrent  
Хэш: 0d2744edb5e542b5e5d34c903afaddccc004e970
Добавлен: 20 февраля 2015 в 12:25:20
Категория: Фильмы » Зарубежное кино » Триллеры / Криминал
Размер: 2.30 GB
Проверил: АРХАНГЕЛ 20 февраля 2015 в 12:25:20

Раздают: 147 Качают: 11

Убийцы фазана / Fasandaeberne (2014) WEB-DLRip-AVC | L1

pic

Название: Убийцы фазана
Оригинальное название: Fasandaeberne

Год выхода: 2014
Страна: Дания, Германия, Швеция / Film i Vast, Zentropa Entertainments, Zentropa International Sweden
Жанр: детектив, триллер, криминал
Перевод: Любительский (одноголосый) Антон Агапов aka datynet (перевод М. Васильев)

Режиссер: Миккель Нёргор
В ролях: Николай Ли Каас, Фарес Фарес, Даница Чурчич, Сара-Софи Бусснин, Йоханна Шмидт, Пилу Асбек, Давид Денсик

О фильме: В 1994 году двое детей близнецов были найдены зверски убитыми в летнем загородном доме. Ряд фактов указывал на причастность к делу группы молодых студентов, но расследование было прекращено, после того как местный отшельник признал себя виновным в этом инциденте.
20 лет спустя это дело попадает на стол Карлса Мёрка, который начинает подозревать, что в нем что-то не так…

pic pic pic

Качество: WEB-DLRip-AVC
Формат: MKV
Продолжительность: 01:54:54
Видео: AVC, 960x408, 2100 Kbps
Звук: Russian / Danish: AC3, 384 kbps (6 ch)
Субтитры: Russian (М.Васильев), English

General
Unique ID : 221314950872840791588910387885366290374 (0xA67FB587C07BAC4097100588B523A7C6)
Complete name : G:\ДИСК 2\01.ФИЛЬМЫ\Охотники на фазанов Fasandraeberne (2014)\The.Absent.One.2014.L1.WEB-DL-AVC.mkv
Format : Matroska
Format version : Version 4 / Version 2
File size : 2.30 GiB
Duration : 1h 54mn
Overall bit rate : 2 868 Kbps
Encoded date : UTC 2015-02-20 05:19:05
Writing application : mkvmerge v7.5.0 ('Glass Culture') 64bit built on Jan 4 2015 16:48:44
Writing library : libebml v1.3.1 + libmatroska v1.4.2
DURATION : 01:54:00.080000000
NUMBER_OF_FRAMES : 832
NUMBER_OF_BYTES : 28682
_STATISTICS_WRITING_APP : mkvmerge v7.5.0 ('Glass Culture') 64bit built on Jan 4 2015 16:48:44
_STATISTICS_WRITING_DATE_UTC : 2015-02-20 05:19:05
_STATISTICS_TAGS : BPS DURATION NUMBER_OF_FRAMES NUMBER_OF_BYTES

Video
ID : 1
Format : AVC
Format/Info : Advanced Video Codec
Format profile : High@L4.1
Format settings, CABAC : Yes
Format settings, ReFrames : 9 frames
Codec ID : V_MPEG4/ISO/AVC
Duration : 1h 54mn
Bit rate : 2 100 Kbps
Width : 960 pixels
Height : 408 pixels
Display aspect ratio : 2.35:1
Frame rate mode : Constant
Frame rate : 25.000 fps
Color space : YUV
Chroma subsampling : 4:2:0
Bit depth : 8 bits
Scan type : Progressive
Bits/(Pixel*Frame) : 0.214
Stream size : 1.64 GiB (71%)
Title : Release by АРХАНГЕЛ
Writing library : x264 core 125 r2200 999b753
Encoding settings : cabac=1 / ref=9 / deblock=1:-3:-3 / analyse=0x3:0x113 / me=umh / subme=11 / psy=1 / psy_rd=1.00:0.00 / mixed_ref=1 / me_range=32 / chroma_me=1 / trellis=2 / 8x8dct=1 / cqm=0 / deadzone=21,11 / fast_pskip=0 / chroma_qp_offset=-2 / threads=6 / lookahead_threads=1 / sliced_threads=0 / nr=0 / decimate=1 / interlaced=0 / bluray_compat=0 / constrained_intra=0 / bframes=8 / b_pyramid=2 / b_adapt=2 / b_bias=0 / direct=3 / weightb=1 / open_gop=0 / weightp=2 / keyint=250 / keyint_min=23 / scenecut=40 / intra_refresh=0 / rc_lookahead=40 / rc=2pass / mbtree=1 / bitrate=2100 / ratetol=1.0 / qcomp=0.60 / qpmin=0 / qpmax=69 / qpstep=4 / cplxblur=20.0 / qblur=0.5 / ip_ratio=1.40 / aq=1:1.00
Language : English
Default : Yes
Forced : No

Audio #1
ID : 2
Format : AC-3
Format/Info : Audio Coding 3
Mode extension : CM (complete main)
Format settings, Endianness : Big
Codec ID : A_AC3
Duration : 1h 54mn
Bit rate mode : Constant
Bit rate : 384 Kbps
Channel(s) : 6 channels
Channel positions : Front: L C R, Side: L R, LFE
Sampling rate : 48.0 KHz
Bit depth : 16 bits
Compression mode : Lossy
Stream size : 316 MiB (13%)
Language : Russian
Default : Yes
Forced : No

Audio #2
ID : 3
Format : AC-3
Format/Info : Audio Coding 3
Mode extension : CM (complete main)
Format settings, Endianness : Big
Codec ID : A_AC3
Duration : 1h 54mn
Bit rate mode : Constant
Bit rate : 384 Kbps
Channel(s) : 6 channels
Channel positions : Front: L C R, Side: L R, LFE
Sampling rate : 48.0 KHz
Bit depth : 16 bits
Compression mode : Lossy
Stream size : 316 MiB (13%)
Language : Danish
Default : No
Forced : No

Text #1
ID : 4
Format : UTF-8
Codec ID : S_TEXT/UTF8
Codec ID/Info : UTF-8 Plain Text
Title : М.Васильев
Language : Russian
Default : No
Forced : No

Text #2
ID : 5
Format : UTF-8
Codec ID : S_TEXT/UTF8
Codec ID/Info : UTF-8 Plain Text
Language : English
Default : No
Forced : No

Menu
00:00:00.000 : en:Kapitel 1
00:15:00.000 : en:Kapitel 2
00:30:00.000 : en:Kapitel 3
00:45:00.000 : en:Kapitel 4
01:00:00.000 : en:Kapitel 5
01:15:00.000 : en:Kapitel 6
01:30:00.000 : en:Kapitel 7
01:45:00.000 : en:Kapitel 8



Релиз от: pic
pic


Информация
Информация Скриншоты Пиры Скачавшие Список файлов
Залил Оценка Просмотров Скачан Файлов
АРХАНГЕЛ 0 516491

Теги
детектив, триллер, криминал

Похожие раздачи

Убийцы фазана / Fasandaeberne (2014) WEB-DLRip | L1 2.05 GB

Охотники на фазанов / Убийцы фазана / Fasandræberne (2014) WEB-DL 720p 3.73 GB

Охотники на фазанов / Убийцы фазана / Fasandræberne (2014) WEB-DL 1080p 3.90 GB

Охотники на фазанов / Убийцы фазана / Fasandræberne (2014) WEB-DLRip 1.37 GB

Больше похожих раздач →

Список комментариев
Комментарии отсутствуют

Добавить комментарий
Внимание
Гости не могут оставлять комментарии, авторизуйтесь.

Панель навигации

ПОПУЛЯРНЫЕ РАЗДАЧИ
скачать торрент Ледокол (2016) WEB-DLRip | iTunesскачать торрент Доктор Стрэндж (2016) TS
скачать торрент Ледокол (2016) WEB-DL 1080p | iTunesскачать торрент Дуэлянт (2016) CAMRip
скачать торрент Отряд самоубийц (2016) BDRip 1080p | Расширeнная версия | iTunesскачать торрент Джейсон Борн (2016) HDTV 720p | Чистый звук
скачать торрент Первый мститель: Противостояние (2016) BDRip | IMAX Edition | iTunesскачать торрент Тарзан. Легенда (2016) HDRip | iTunes
скачать торрент Dark Souls 3: Deluxe Edition (2016) PC | RePack от xatabскачать торрент Люди Икс: Апокалипсис / X-Men: Apocalypse (2016) BDRip 720p | Лицензия

Будь с нами!


Наши друзья 



Информация, расположенная на данном сервере, предназначена исключительно для частного использования и не может быть загружена/перенесена на другой компьютер. Ни владелец сайта, ни хостинг-провайдер, ни любые другие физические или юридические лица не могут нести никакой отвественностиза любое использование материалов данного сайта.

© 2012-2016 TRACK.KG.