Загрузить Adobe Flash Player
Как тут качать? :: Как встать на раздачу?

Скачать / Download torrent  
Хэш: 736ddec2e30672c8371fa56ff69c89a33ef48e9f
Добавлен: 19 февраля 2015 в 15:02:13
Категория: Фильмы » Зарубежное кино » Комедии / Пародийные
Размер: 2.23 GB
Проверил: АРХАНГЕЛ 18 февраля 2015 в 20:53:00

Раздают: 395 Качают: 51

Дикие истории / Relatos salvajes (2014) WEB-DLRip-AVC | D | Чистый звук

pic

«В каждом спит зверь. Не буди его...»

Название: Дикие истории
Оригинальное название: Relatos salvajes

Год выхода: 2014
Страна: Аргентина, Испания / Corner Producciones, Instituto Nacional de Cine y Artes Audiovisuales (INCAA), Kramer & Sigman Films...
Жанр: триллер, драма, комедия
Перевод: Дублированный Чистый звук(официальное)

Режиссер: Дамиан Сифрон
В ролях: Лилиана Экерман, Луис Мануэль Альтамирано Гарсиа, Алехандро Анджелини, Дамиан Бенитес, Кристина Бланко, Густаво Бонфигли, Сесар Бордон, Пабло Брикер, Мария Лаура Каккамо, Камила София Касас

О фильме: Гэбриела Пастернака обижали многие, с кем сводила его жизнь — девушка, учитель музыки, профессор в консерватории, дантист. И вот все они, на свою беду, оказались вместе с ним в одном самолете… Ночью в придорожной закусочной официантка узнает в посетителе ростовщика, который много лет назад довел до самоубийства ее отца. А у поварихи, в прошлом отсидевшей срок, для мести такому гаду сразу нашлось средство — крысиный яд… Городской красавчик ехал на своей мощной Audi по пустынной дороге и решил обогнать старый Peugeot, но сидевший за рулем провинциальный упырь решил не уступать. И вот уже кровавый итог бессмысленного соперничества не за горами…

pic pic pic pic pic


Качество: WEB-DLRip-AVC
Формат: MKV
Продолжительность: 01:56:45
Видео: AVC, 1008x424, 2100 Kbps
Звук: Русский: MP3, 2 ch, 128 Kbps, испанский: AC3, 6 ch, 384 Kbps

General
Unique ID : 249439984802582039739033081448588605254 (0xBBA864C35AD9B9C2AEC95D4EEDD37746)
Complete name : G:\ДИСК 2\01.ФИЛЬМЫ\Дикие истории Relatos salvajes (2014)\D1kie.istor1i.2014.D.WEB-DLRip-AVC (1).mkv
Format : Matroska
Format version : Version 4 / Version 2
File size : 2.23 GiB
Duration : 2h 1mn
Overall bit rate : 2 614 Kbps
Movie name : m720 Relatos Salvajes by RD
Encoded date : UTC 2015-02-19 07:42:46
Writing application : mkvmerge v7.5.0 ('Glass Culture') 64bit built on Jan 4 2015 16:48:44
Writing library : libebml v1.3.1 + libmatroska v1.4.2
_STATISTICS_WRITING_APP : mkvmerge v7.5.0 ('Glass Culture') 64bit built on Jan 4 2015 16:48:44
_STATISTICS_WRITING_DATE_UTC : 2015-02-19 07:42:46
_STATISTICS_TAGS : BPS DURATION NUMBER_OF_FRAMES NUMBER_OF_BYTES
DURATION : 02:01:57.368000000
NUMBER_OF_FRAMES : 280118
NUMBER_OF_BYTES : 117077891

Video
ID : 1
Format : AVC
Format/Info : Advanced Video Codec
Format profile : High@L4.1
Format settings, CABAC : Yes
Format settings, ReFrames : 9 frames
Codec ID : V_MPEG4/ISO/AVC
Duration : 2h 1mn
Bit rate : 2 100 Kbps
Width : 1 008 pixels
Height : 424 pixels
Display aspect ratio : 2.40:1
Frame rate mode : Constant
Frame rate : 23.976 fps
Color space : YUV
Chroma subsampling : 4:2:0
Bit depth : 8 bits
Scan type : Progressive
Bits/(Pixel*Frame) : 0.205
Stream size : 1.75 GiB (78%)
Title : Release by АРХАНГЕЛ
Writing library : x264 core 125 r2200 999b753
Encoding settings : cabac=1 / ref=9 / deblock=1:-3:-3 / analyse=0x3:0x113 / me=umh / subme=11 / psy=1 / psy_rd=1.00:0.00 / mixed_ref=1 / me_range=32 / chroma_me=1 / trellis=2 / 8x8dct=1 / cqm=0 / deadzone=21,11 / fast_pskip=0 / chroma_qp_offset=-2 / threads=6 / lookahead_threads=1 / sliced_threads=0 / nr=0 / decimate=1 / interlaced=0 / bluray_compat=0 / constrained_intra=0 / bframes=9 / b_pyramid=2 / b_adapt=2 / b_bias=0 / direct=3 / weightb=1 / open_gop=0 / weightp=2 / keyint=240 / keyint_min=23 / scenecut=40 / intra_refresh=0 / rc_lookahead=40 / rc=2pass / mbtree=1 / bitrate=2100 / ratetol=1.0 / qcomp=0.60 / qpmin=0 / qpmax=69 / qpstep=4 / cplxblur=20.0 / qblur=0.5 / ip_ratio=1.40 / aq=1:1.00
Language : English
Default : Yes
Forced : No

Audio #1
ID : 2
Format : MPEG Audio
Format version : Version 1
Format profile : Layer 3
Codec ID : A_MPEG/L3
Codec ID/Hint : MP3
Duration : 2h 1mn
Bit rate mode : Constant
Bit rate : 128 Kbps
Channel(s) : 2 channels
Sampling rate : 44.1 KHz
Compression mode : Lossy
Stream size : 112 MiB (5%)
Language : Russian
Default : Yes
Forced : No

Audio #2
ID : 3
Format : AC-3
Format/Info : Audio Coding 3
Mode extension : CM (complete main)
Format settings, Endianness : Big
Codec ID : A_AC3
Duration : 2h 1mn
Bit rate mode : Constant
Bit rate : 384 Kbps
Channel(s) : 6 channels
Channel positions : Front: L C R, Side: L R, LFE
Sampling rate : 48.0 KHz
Bit depth : 16 bits
Compression mode : Lossy
Stream size : 335 MiB (15%)
Language : Spanish
Default : No
Forced : No



Релиз от: pic
pic


Информация
Информация Скриншоты Пиры Скачавшие Список файлов
Залил Оценка Просмотров Скачан Файлов
АРХАНГЕЛ 0 544301

Теги
триллер, драма, комедия

Похожие раздачи

Дикие истории / Relatos salvajes (2014) BDRip 1080p | Лицензия 10.34 GB

Дикие истории / Relatos salvajes (2014) HDRip | Лицензия 1.37 GB

Больше похожих раздач →

Список комментариев
Комментарии отсутствуют

Добавить комментарий
Внимание
Гости не могут оставлять комментарии, авторизуйтесь.

Панель навигации

ПОПУЛЯРНЫЕ РАЗДАЧИ
скачать торрент Ледокол (2016) WEB-DLRip | iTunesскачать торрент Доктор Стрэндж (2016) TS
скачать торрент Ледокол (2016) WEB-DL 1080p | iTunesскачать торрент Дуэлянт (2016) CAMRip
скачать торрент Отряд самоубийц (2016) BDRip 1080p | Расширeнная версия | iTunesскачать торрент Джейсон Борн (2016) HDTV 720p | Чистый звук
скачать торрент Первый мститель: Противостояние (2016) BDRip | IMAX Edition | iTunesскачать торрент Тарзан. Легенда (2016) HDRip | iTunes
скачать торрент Dark Souls 3: Deluxe Edition (2016) PC | RePack от xatabскачать торрент Люди Икс: Апокалипсис / X-Men: Apocalypse (2016) BDRip 720p | Лицензия

Будь с нами!


Наши друзья 



Информация, расположенная на данном сервере, предназначена исключительно для частного использования и не может быть загружена/перенесена на другой компьютер. Ни владелец сайта, ни хостинг-провайдер, ни любые другие физические или юридические лица не могут нести никакой отвественностиза любое использование материалов данного сайта.

© 2012-2016 TRACK.KG.