Загрузить Adobe Flash Player
Как тут качать? :: Как встать на раздачу?

Скачать / Download torrent  
Хэш: 7c6e1d2e164e23f08ba27700944b94e4d9c13177
Добавлен: 17 февраля 2015 в 19:33:46
Категория: Фильмы » Зарубежное кино » Триллеры / Криминал
Размер: 2.11 GB
Проверил: АРХАНГЕЛ 17 февраля 2015 в 19:33:46

Раздают: 11 Качают: 1

Карательный отряд / Force of Execution (2013) HDRip-AVC | P

pic

«Даже и не пытайтесь переделать кодекс»

Название: Карательный отряд
Оригинальное название: Force of Execution

Год выхода: 2013
Страна: США / Voltage Pictures
Жанр: боевик, криминал
Перевод: Профессиональное (многоголосое) РенТВ

Режиссер: Киони Ваксман
В ролях: Стивен Сигал, Винг Реймз, Дэнни Трехо, Хесус мл., Брен Фостер, Дженни Гэбриэлль, Дэвид Хаус, Сара Минник, Эрик Стейниг, Дж. Энтони Пена

О фильме: Криминальная империя была родной для Александра Коатеса и разрушительной для его врагов, пока он номер один. Роман Хурст, испортил то, что было обычным делом. Александр спас своему протеже жизнь, но запачкал руки, что заставило Хурста уйти в отставку навсегда. Вскоре Александр понял, что ему нужна помощь Хурста в последний раз, когда появился Айсман, безжалостный убийца.

pic pic pic pic

Качество: HDRip-AVC
Формат: MKV
Продолжительность: 01:39:02
Видео: MPEG-4 AVC, 1024x576, 2 100 Kbps
Звук: Russian: AC3, 448 Kbps (6 ch) / English: AC3, 512 Kbps (6 ch)
Субтитры: English

General
Unique ID : 198308362710197491612760119774102589809 (0x9530CD2853D127099A6FE4553F129171)
Complete name : G:\ДИСК 2\01.ФИЛЬМЫ\Карательный отряд Force of Execution (2013)\Karatelnij.otrjad.2013.P.HDRip-AVC.mkv
Format : Matroska
Format version : Version 4 / Version 2
File size : 2.11 GiB
Duration : 1h 38mn
Overall bit rate : 3 054 Kbps
Encoded date : UTC 2015-02-17 12:38:33
Writing application : mkvmerge v7.5.0 ('Glass Culture') 64bit built on Jan 4 2015 16:48:44
Writing library : libebml v1.3.1 + libmatroska v1.4.2
DURATION : 01:38:54.944000000
NUMBER_OF_FRAMES : 185467
NUMBER_OF_BYTES : 379836416
_STATISTICS_WRITING_APP : mkvmerge v7.5.0 ('Glass Culture') 64bit built on Jan 4 2015 16:48:44
_STATISTICS_WRITING_DATE_UTC : 2015-02-17 12:38:33
_STATISTICS_TAGS : BPS DURATION NUMBER_OF_FRAMES NUMBER_OF_BYTES

Video
ID : 1
Format : AVC
Format/Info : Advanced Video Codec
Format profile : High@L4.1
Format settings, CABAC : Yes
Format settings, ReFrames : 5 frames
Codec ID : V_MPEG4/ISO/AVC
Duration : 1h 38mn
Bit rate : 2 100 Kbps
Width : 1 024 pixels
Height : 576 pixels
Display aspect ratio : 16:9
Frame rate mode : Constant
Frame rate : 23.976 fps
Color space : YUV
Chroma subsampling : 4:2:0
Bit depth : 8 bits
Scan type : Progressive
Bits/(Pixel*Frame) : 0.148
Stream size : 1.40 GiB (67%)
Title : Release by АРХАНГЕЛ
Writing library : x264 core 125 r2200 999b753
Encoding settings : cabac=1 / ref=5 / deblock=1:0:0 / analyse=0x3:0x113 / me=hex / subme=7 / psy=1 / psy_rd=1.00:0.00 / mixed_ref=1 / me_range=16 / chroma_me=1 / trellis=1 / 8x8dct=1 / cqm=0 / deadzone=21,11 / fast_pskip=1 / chroma_qp_offset=-2 / threads=6 / lookahead_threads=1 / sliced_threads=0 / nr=0 / decimate=1 / interlaced=0 / bluray_compat=0 / constrained_intra=0 / bframes=3 / b_pyramid=2 / b_adapt=1 / b_bias=0 / direct=1 / weightb=1 / open_gop=0 / weightp=2 / keyint=250 / keyint_min=23 / scenecut=40 / intra_refresh=0 / rc_lookahead=40 / rc=abr / mbtree=1 / bitrate=2100 / ratetol=1.0 / qcomp=0.60 / qpmin=0 / qpmax=69 / qpstep=4 / ip_ratio=1.40 / aq=1:1.00
Language : English
Default : Yes
Forced : No

Audio #1
ID : 2
Format : AC-3
Format/Info : Audio Coding 3
Mode extension : CM (complete main)
Format settings, Endianness : Big
Codec ID : A_AC3
Duration : 1h 38mn
Bit rate mode : Constant
Bit rate : 448 Kbps
Channel(s) : 6 channels
Channel positions : Front: L C R, Side: L R, LFE
Sampling rate : 48.0 KHz
Bit depth : 16 bits
Compression mode : Lossy
Stream size : 317 MiB (15%)
Title : РенТВ
Language : Russian
Default : Yes
Forced : No

Audio #2
ID : 3
Format : AC-3
Format/Info : Audio Coding 3
Mode extension : CM (complete main)
Format settings, Endianness : Big
Codec ID : A_AC3
Duration : 1h 38mn
Bit rate mode : Constant
Bit rate : 512 Kbps
Channel(s) : 6 channels
Channel positions : Front: L C R, Side: L R, LFE
Sampling rate : 48.0 KHz
Bit depth : 16 bits
Compression mode : Lossy
Stream size : 362 MiB (17%)
Language : English
Default : No
Forced : No

Text
ID : 4
Format : UTF-8
Codec ID : S_TEXT/UTF8
Codec ID/Info : UTF-8 Plain Text
Language : English
Default : No
Forced : No

Menu
00:00:00.000 : en:00:00:00.000
00:06:36.104 : en:00:06:36.104
00:18:10.965 : en:00:18:10.965
00:24:51.448 : en:00:24:51.448
00:34:31.569 : en:00:34:31.569
00:47:11.495 : en:00:47:11.495
00:54:15.377 : en:00:54:15.377
01:00:45.559 : en:01:00:45.559
01:07:32.006 : en:01:07:32.006
01:16:10.941 : en:01:16:10.941
01:22:48.630 : en:01:22:48.630
01:35:19.797 : en:01:35:19.797



Релиз от: pic
pic


Информация
Информация Скриншоты Пиры Скачавшие Список файлов
Залил Оценка Просмотров Скачан Файлов
АРХАНГЕЛ 0 254451

Теги
боевик, криминал

Похожие раздачи

Карательный отряд / Force of Execution (2013) HDRip | P 2.03 GB

Карательный отряд / Force of Execution (2013) BDRemux 1080p 20.02 GB

Карательный отряд / Force of Execution (2013) HDRip | P 1.37 GB

Больше похожих раздач →

Список комментариев
Комментарии отсутствуют

Добавить комментарий
Внимание
Гости не могут оставлять комментарии, авторизуйтесь.

Панель навигации

ПОПУЛЯРНЫЕ РАЗДАЧИ
скачать торрент Ледокол (2016) WEB-DLRip | iTunesскачать торрент Доктор Стрэндж (2016) TS
скачать торрент Ледокол (2016) WEB-DL 1080p | iTunesскачать торрент Дуэлянт (2016) CAMRip
скачать торрент Отряд самоубийц (2016) BDRip 1080p | Расширeнная версия | iTunesскачать торрент Джейсон Борн (2016) HDTV 720p | Чистый звук
скачать торрент Первый мститель: Противостояние (2016) BDRip | IMAX Edition | iTunesскачать торрент Тарзан. Легенда (2016) HDRip | iTunes
скачать торрент Dark Souls 3: Deluxe Edition (2016) PC | RePack от xatabскачать торрент Люди Икс: Апокалипсис / X-Men: Apocalypse (2016) BDRip 720p | Лицензия

Будь с нами!


Наши друзья 



Информация, расположенная на данном сервере, предназначена исключительно для частного использования и не может быть загружена/перенесена на другой компьютер. Ни владелец сайта, ни хостинг-провайдер, ни любые другие физические или юридические лица не могут нести никакой отвественностиза любое использование материалов данного сайта.

© 2012-2016 TRACK.KG.