Загрузить Adobe Flash Player
Как тут качать? :: Как встать на раздачу?

Скачать / Download torrent  
Хэш: a1b0f31779543df132087e264d816f5e73e7a616
Добавлен: 16 февраля 2015 в 21:06:58
Категория: Фильмы » Зарубежное кино » Приключения / Семейные
Размер: 1.74 GB
Проверил: АРХАНГЕЛ 16 февраля 2015 в 21:06:58

Раздают: 472 Качают: 68

Чёрное море / Black Sea (2014) WEBRip-AVC | P

pic

Название: Чёрное море
Оригинальное название: Black Sea

Год выхода: 2014
Страна: Великобритания, США, Россия / Focus Features, Film4, Cowboy Films
Жанр: триллер, приключения
Перевод: Профессиональный многоголосый Oфициальный

Режиссер: Кевин МакДональд
В ролях: Джуд Лоу, Скут МакНэйри, Бен Мендельсон, Джоди Уиттакер, Тобайас Мензис, Григорий Добрыгин, Паулина Бонева, Джун Смит, Дэвид Трелфолл, Майкл Смайли

О фильме: К уволенному капитану подводной лодки - обращается таинственный наниматель с предложением возглавить экспедицию по поиску затонувшей у берегов Чёрного моря субмарины, предположительно загруженной золотом. Желая подзаработать на этом деле и отомстить бывшему работодателю, капитан собирает команду из русских и английских моряков и отправляется в плавание, но вскоре понимает, в какое рискованное предприятие ввязался.

pic pic pic



Качество: WEBRip-AVC
Формат: MKV
Продолжительность: 01:49:43
Видео: MPEG-4 AVC, 1024x424, 2036 Kbps
Звук: AC3, 192 Kbps (2 ch)

General
Unique ID : 227424562838317214948720084263467197621 (0xAB1860A8297BC4A2A150BF22D15FA4B5)
Complete name : G:\ДИСК 2\01.ФИЛЬМЫ\Чёрное море Black Sea (2014)\4ornoe More. Black Sea (2014) WEBRip-AVC.mkv
Format : Matroska
Format version : Version 4 / Version 2
File size : 1.74 GiB
Duration : 1h 49mn
Overall bit rate : 2 273 Kbps
Encoded date : UTC 2015-02-16 14:33:19
Writing application : mkvmerge v7.5.0 ('Glass Culture') 64bit built on Jan 4 2015 16:48:44
Writing library : libebml v1.3.1 + libmatroska v1.4.2
_STATISTICS_WRITING_APP : mkvmerge v7.5.0 ('Glass Culture') 64bit built on Jan 4 2015 16:48:44
_STATISTICS_WRITING_DATE_UTC : 2015-02-16 14:33:19
_STATISTICS_TAGS : BPS DURATION NUMBER_OF_FRAMES NUMBER_OF_BYTES
DURATION : 01:49:42.320000000
NUMBER_OF_FRAMES : 164558
NUMBER_OF_BYTES : 1710776175

Video
ID : 1
Format : AVC
Format/Info : Advanced Video Codec
Format profile : Main@L4.1
Format settings, CABAC : Yes
Format settings, ReFrames : 8 frames
Codec ID : V_MPEG4/ISO/AVC
Duration : 1h 49mn
Bit rate : 2 036 Kbps
Width : 1 024 pixels
Height : 424 pixels
Display aspect ratio : 2.40:1
Frame rate mode : Constant
Frame rate : 25.000 fps
Color space : YUV
Chroma subsampling : 4:2:0
Bit depth : 8 bits
Scan type : Progressive
Bits/(Pixel*Frame) : 0.188
Stream size : 1.56 GiB (90%)
Title : Release by АРХАНГЕЛ
Language : English
Default : Yes
Forced : No

Audio
ID : 2
Format : AC-3
Format/Info : Audio Coding 3
Mode extension : CM (complete main)
Format settings, Endianness : Big
Codec ID : A_AC3
Duration : 1h 49mn
Bit rate mode : Constant
Bit rate : 192 Kbps
Channel(s) : 2 channels
Channel positions : Front: L R
Sampling rate : 44.1 KHz
Bit depth : 16 bits
Compression mode : Lossy
Stream size : 151 MiB (8%)
Language : Russian
Default : Yes
Forced : No



Релиз от: pic
pic


Информация
Информация Скриншоты Пиры Скачавшие Список файлов
Залил Оценка Просмотров Скачан Файлов
АРХАНГЕЛ 0 732721

Теги
триллер, приключения

Похожие раздачи

Чёрное море / Black Sea (2014) BDRip 1080p | Лицензия 8.71 GB

Чёрное море / Black Sea (2014) BDRip 720p | Лицензия 5.60 GB

Чёрное море / Black Sea (2014) HDRip | Лицензия 1.46 GB

Летний кубок КВН «Чёрное море - 2014» [Эфир 12.07.2014] (2014) HDRip 720p 4.08 GB

Больше похожих раздач →

Список комментариев
Комментарии отсутствуют

Добавить комментарий
Внимание
Гости не могут оставлять комментарии, авторизуйтесь.

Панель навигации

ПОПУЛЯРНЫЕ РАЗДАЧИ
скачать торрент Ледокол (2016) WEB-DLRip | iTunesскачать торрент Ледокол (2016) WEB-DL 1080p | iTunes
скачать торрент Дуэлянт (2016) CAMRipскачать торрент Отряд самоубийц (2016) BDRip 1080p | Расширeнная версия | iTunes
скачать торрент Джейсон Борн (2016) HDTV 720p | Чистый звукскачать торрент Первый мститель: Противостояние (2016) BDRip | IMAX Edition | iTunes
скачать торрент Тарзан. Легенда (2016) HDRip | iTunesскачать торрент Dark Souls 3: Deluxe Edition (2016) PC | RePack от xatab
скачать торрент Люди Икс: Апокалипсис / X-Men: Apocalypse (2016) BDRip 720p | Лицензияскачать торрент Полтора шпиона (2016) BDRip 1080p | Лицензия

Будь с нами!


Наши друзья 



Информация, расположенная на данном сервере, предназначена исключительно для частного использования и не может быть загружена/перенесена на другой компьютер. Ни владелец сайта, ни хостинг-провайдер, ни любые другие физические или юридические лица не могут нести никакой отвественностиза любое использование материалов данного сайта.

© 2012-2016 TRACK.KG.