Загрузить Adobe Flash Player
Как тут качать? :: Как встать на раздачу?

Скачать / Download torrent  
Хэш: 119a54d241135e3f69fa381560c27838d5c39330
Добавлен: 16 февраля 2015 в 10:44:33
Категория: Фильмы » Фильмы HD / BD
Размер: 2.88 GB
Проверил: АРХАНГЕЛ 16 февраля 2015 в 10:44:33

Раздают: 78 Качают: 21

Испытание (2014) WEB-DLRip 720p | iTunes

pic

Название: Испытание

Год выхода: 2014
Страна: Россия / Профит
Жанр: драма
Перевод: Оригинальное iTunes (фильм не содержит диалогов)

Режиссер: Александр Котт
В ролях: Елена Ан, Данила Рассомахин, Карим Пакачаков, Нариман Бекбулатов-Арешев, Эдуард Галкин, Дмитрий Семенов, Юрий Пимкин, Игорь Ливенцов, Мирослав Тузин, Рустем Османов

О фильме: Они живут в степи. Отец и дочь. Ничто не может нарушить вечный порядок. Завтра наступает всегда. И каждое утро отец уезжает работать. И она остается одна. Ждать отца. И чувствовать. Двое любят ее. Она любит каждого. Любовь нельзя поделить.
Однажды решение приходит само. Оттуда, где солнце.

pic pic pic pic
pic

Качество: WEB-DLRip 720p
Формат: MKV
Продолжительность: 01:32:03
Видео: AVC, 1280x544, 4100 Kbps
Звук: AC3 6 ch, 384 Kbps

General
Unique ID : 228035061394341053798412038098949992937 (0xAB8DF48F423A4E56A7F47C266FAF71E9)
Complete name : G:\ДИСК 2\02.ФИЛЬМЫ СНГ\Испытание (2014)\Ispytanie.2014.O.WEBDLRip.720p.mkv
Format : Matroska
Format version : Version 2
File size : 2.88 GiB
Duration : 1h 32mn
Overall bit rate : 4 483 Kbps
Encoded date : UTC 2015-02-15 23:27:56
Writing application : mkvmerge v5.6.0 ('Kenya Kane') built on Jun 29 2012 15:01:44
Writing library : libebml v1.2.3 + libmatroska v1.3.0

Video
ID : 1
Format : AVC
Format/Info : Advanced Video Codec
Format profile : Main@L4.1
Format settings, CABAC : Yes
Format settings, ReFrames : 8 frames
Codec ID : V_MPEG4/ISO/AVC
Duration : 1h 32mn
Bit rate : 4 100 Kbps
Width : 1 280 pixels
Height : 544 pixels
Display aspect ratio : 2.35:1
Frame rate mode : Constant
Frame rate : 25.000 fps
Color space : YUV
Chroma subsampling : 4:2:0
Bit depth : 8 bits
Scan type : Progressive
Bits/(Pixel*Frame) : 0.236
Stream size : 2.58 GiB (89%)
Writing library : x264 core 125 r2200 999b753
Encoding settings : cabac=1 / ref=8 / deblock=1:-1:-1 / analyse=0x1:0x131 / me=umh / subme=10 / psy=1 / psy_rd=1.00:0.10 / mixed_ref=1 / me_range=16 / chroma_me=1 / trellis=2 / 8x8dct=0 / cqm=0 / deadzone=21,11 / fast_pskip=1 / chroma_qp_offset=-3 / threads=6 / lookahead_threads=1 / sliced_threads=0 / nr=0 / decimate=1 / interlaced=0 / bluray_compat=0 / constrained_intra=0 / bframes=8 / b_pyramid=2 / b_adapt=2 / b_bias=0 / direct=3 / weightb=1 / open_gop=1 / weightp=2 / keyint=250 / keyint_min=25 / scenecut=40 / intra_refresh=0 / rc=2pass / mbtree=0 / bitrate=4100 / ratetol=1.0 / qcomp=0.60 / qpmin=0 / qpmax=69 / qpstep=4 / cplxblur=20.0 / qblur=0.5 / ip_ratio=1.40 / pb_ratio=1.30 / aq=1:1.00
Default : Yes
Forced : No

Audio
ID : 2
Format : AC-3
Format/Info : Audio Coding 3
Mode extension : CM (complete main)
Format settings, Endianness : Big
Codec ID : A_AC3
Duration : 1h 32mn
Bit rate mode : Constant
Bit rate : 384 Kbps
Channel(s) : 6 channels
Channel positions : Front: L C R, Side: L R, LFE
Sampling rate : 48.0 KHz
Bit depth : 16 bits
Compression mode : Lossy
Stream size : 253 MiB (9%)
Language : Russian
Default : Yes
Forced : No



Релиз от: pic
pic


Информация
Информация Скриншоты Пиры Скачавшие Список файлов
Залил Оценка Просмотров Скачан Файлов
АРХАНГЕЛ 0 289401

Теги
драма

Похожие раздачи

Бегущий в лабиринте: Испытание огнём / Maze Runner: The Scorch Trials (2015) BDRip 1080p | Лицензия 9.09 GB

Бегущий в лабиринте: Испытание огнём / Maze Runner: The Scorch Trials (2015) BDRip 720p | Лицензия 5.66 GB

Бегущий в лабиринте: Испытание огнём / Maze Runner: The Scorch Trials (2015) HDRip | Лицензия 1.37 GB

Наемный Убийца: Испытание Снайпера / Hitman: Sniper Challenge (2012) [Action ( Shooter ) / 1st person / 3rd person / 3D ] Rus|En 1.12 GB

Больше похожих раздач →

Список комментариев
Комментарии отсутствуют

Добавить комментарий
Внимание
Гости не могут оставлять комментарии, авторизуйтесь.

Панель навигации

ПОПУЛЯРНЫЕ РАЗДАЧИ
скачать торрент Ледокол (2016) WEB-DLRip | iTunesскачать торрент Доктор Стрэндж (2016) TS
скачать торрент Ледокол (2016) WEB-DL 1080p | iTunesскачать торрент Дуэлянт (2016) CAMRip
скачать торрент Отряд самоубийц (2016) BDRip 1080p | Расширeнная версия | iTunesскачать торрент Джейсон Борн (2016) HDTV 720p | Чистый звук
скачать торрент Первый мститель: Противостояние (2016) BDRip | IMAX Edition | iTunesскачать торрент Тарзан. Легенда (2016) HDRip | iTunes
скачать торрент Полтора шпиона (2016) BDRip 1080p | Лицензияскачать торрент Джейсон Борн (2016) HDTV 1080p | Чистый звук

Будь с нами!


Наши друзья 



Информация, расположенная на данном сервере, предназначена исключительно для частного использования и не может быть загружена/перенесена на другой компьютер. Ни владелец сайта, ни хостинг-провайдер, ни любые другие физические или юридические лица не могут нести никакой отвественностиза любое использование материалов данного сайта.

© 2012-2016 TRACK.KG.