Загрузить Adobe Flash Player
Как тут качать? :: Как встать на раздачу?

Скачать / Download torrent  
Хэш: 38ebe61d1e225c38517ea63e08cc5c8ee13ff7ad
Добавлен: 13 февраля 2015 в 23:03:37
Категория: Фильмы » Фильмы стран СНГ
Размер: 1.47 GB
Проверил: АРХАНГЕЛ 13 февраля 2015 в 22:59:42

Раздают: 187 Качают: 78

Спасибо папа / Thank you, dad (2014) WEB-DLRip-AVC

pic

Название: Спасибо папа
Оригинальное название: Thank you, dad

Год выхода: 2014
Страна: Армения / Марс Медиа Энтертейнмент
Жанр: Комедия
Перевод: Оригинал (русский), Профессиональный (многоголосный) на английскую речь

Режиссер: Грач Кешишян
В ролях: Криста Донарго, Луиза Гамбарян, Майрануш Григорян, Дэвид Акопян, Левон Арутюнян, Джордж Ховакимян, Джения Мкртумян, Левон Мурадян, Еро Мурян, Нарек Нерсисян

О фильме: В свой день рождения Вирджи, живущая в Нью-Йорке, получает неожиданный подарок — наследство в 50 миллионов долларов. Только по завещанию отца, которого она не видела больше 10 лет, ей надо выполнить одно условие: найти армянина с редчайшим именем Баргевос и выйти за него замуж. На все это ей дается только месяц. Чтобы встретить свое «счастье», Вирджи через несколько дней вылетает в Армению, где, как ей удалось выяснить, живет один-единственный Баргевос.

pic pic pic

Качество: WEB-DLRip-AVC
Формат: MKV
Продолжительность: 01:35:21
Видео: AVC, 1024x512, 2050 Kbps
Звук: AC3, 2 ch, 192 Kbps

General
Unique ID : 242721894595604567739969551857790455820 (0xB69A8957CD679A96AEBDFEAFF8F7900C)
Complete name : G:\ДИСК 2\02.ФИЛЬМЫ СНГ\Спасибо папа Thank you, dad (2014)\Spasibo.papa.2014.O.WEBDLRip-AVC.mkv
Format : Matroska
Format version : Version 2
File size : 1.47 GiB
Duration : 1h 35mn
Overall bit rate : 2 213 Kbps
Encoded date : UTC 2015-02-13 12:29:38
Writing application : mkvmerge v5.6.0 ('Kenya Kane') built on Jun 29 2012 15:01:44
Writing library : libebml v1.2.3 + libmatroska v1.3.0

Video
ID : 1
Format : AVC
Format/Info : Advanced Video Codec
Format profile : High@L4.1
Format settings, CABAC : Yes
Format settings, ReFrames : 8 frames
Codec ID : V_MPEG4/ISO/AVC
Duration : 1h 35mn
Bit rate : 2 050 Kbps
Width : 1 024 pixels
Height : 512 pixels
Display aspect ratio : 2.000
Frame rate mode : Constant
Frame rate : 25.000 fps
Color space : YUV
Chroma subsampling : 4:2:0
Bit depth : 8 bits
Scan type : Progressive
Bits/(Pixel*Frame) : 0.156
Stream size : 1.32 GiB (89%)
Writing library : x264 core 125 r2200 999b753
Encoding settings : cabac=1 / ref=8 / deblock=1:-1:-1 / analyse=0x3:0x133 / me=umh / subme=5 / psy=1 / psy_rd=1.00:0.10 / mixed_ref=1 / me_range=16 / chroma_me=1 / trellis=2 / 8x8dct=1 / cqm=0 / deadzone=21,11 / fast_pskip=1 / chroma_qp_offset=-1 / threads=6 / lookahead_threads=1 / sliced_threads=0 / nr=0 / decimate=1 / interlaced=0 / bluray_compat=0 / constrained_intra=0 / bframes=8 / b_pyramid=2 / b_adapt=2 / b_bias=0 / direct=1 / weightb=1 / open_gop=1 / weightp=2 / keyint=250 / keyint_min=25 / scenecut=40 / intra_refresh=0 / rc_lookahead=50 / rc=abr / mbtree=1 / bitrate=2050 / ratetol=1.0 / qcomp=0.60 / qpmin=0 / qpmax=69 / qpstep=4 / ip_ratio=1.40 / aq=1:1.00
Default : Yes
Forced : No

Audio
ID : 2
Format : AC-3
Format/Info : Audio Coding 3
Mode extension : CM (complete main)
Format settings, Endianness : Big
Codec ID : A_AC3
Duration : 1h 35mn
Bit rate mode : Constant
Bit rate : 192 Kbps
Channel(s) : 2 channels
Channel positions : Front: L R
Sampling rate : 48.0 KHz
Bit depth : 16 bits
Compression mode : Lossy
Stream size : 131 MiB (9%)
Language : Russian
Default : Yes
Forced : Yes


Релиз от: pic
pic


Информация
Информация Скриншоты Пиры Скачавшие Список файлов
Залил Оценка Просмотров Скачан Файлов
АРХАНГЕЛ 0 559381

Теги
комедия

Похожие раздачи

Спасибо, папа / Thank you, dad (2014) WEB-DLRip 720p 3.02 GB

Больше похожих раздач →

Список комментариев
Комментарии отсутствуют

Добавить комментарий
Внимание
Гости не могут оставлять комментарии, авторизуйтесь.

Панель навигации

ПОПУЛЯРНЫЕ РАЗДАЧИ
скачать торрент Ледокол (2016) WEB-DLRip | iTunesскачать торрент Доктор Стрэндж (2016) TS
скачать торрент Ледокол (2016) WEB-DL 1080p | iTunesскачать торрент Дуэлянт (2016) CAMRip
скачать торрент Отряд самоубийц (2016) BDRip 1080p | Расширeнная версия | iTunesскачать торрент Джейсон Борн (2016) HDTV 720p | Чистый звук
скачать торрент Первый мститель: Противостояние (2016) BDRip | IMAX Edition | iTunesскачать торрент Тарзан. Легенда (2016) HDRip | iTunes
скачать торрент Полтора шпиона (2016) BDRip 1080p | Лицензияскачать торрент Джейсон Борн (2016) HDTV 1080p | Чистый звук

Будь с нами!


Наши друзья 



Информация, расположенная на данном сервере, предназначена исключительно для частного использования и не может быть загружена/перенесена на другой компьютер. Ни владелец сайта, ни хостинг-провайдер, ни любые другие физические или юридические лица не могут нести никакой отвественностиза любое использование материалов данного сайта.

© 2012-2016 TRACK.KG.