Загрузить Adobe Flash Player
Как тут качать? :: Как встать на раздачу?

Скачать / Download torrent  
Хэш: 4091543931c86c463303b3463e046f09085e8227
Добавлен: 13 февраля 2015 в 09:07:06
Категория: Фильмы » Зарубежное кино » Комедии / Пародийные
Размер: 2.27 GB
Проверил: АРХАНГЕЛ 13 февраля 2015 в 09:07:06

Раздают: 135 Качают: 58

Столетний старик, который вылез в окно и исчез / The Centenarian Who Climbed Out the Window and Vanished (2013) HDRip-AVC | L1

pic

«Вещи – это то, что они, всё равно независимо от того, что будет, ими и останутся»

Название: Столетний старик, который вылез в окно и исчез
Оригинальное название: The Centenarian Who Climbed Out the Window and Vanished

Год выхода: 2013
Страна: Швеция / Buena Vista International (Sweden), FLX Comedy AB, TV4 Sweden...
Жанр: комедия, приключения
Перевод: Любительское (одноголосое) С.Бросалин

Режиссер: Феликс Хернгрен
В ролях: Роберт Густафссон, Ивар Викландер, Давид Виберг, Миа Шерингер, Йенс Хультен, Бианка Крузейро, Алан Форд, Свен Лённ, Дэвид Шеклтон, Георг Николофф

О фильме: В день празднования своего столетия юбиляр вылезает через окно дома престарелых на газон и уходит. Уходит не куда-то, а от чего-то. От бессмысленного доживания в богадельне. В первый же час он ухитряется поссориться с бандитами и уехать в неизвестном направлении. Вскоре становится понятно, что все сто лет его жизни — сплошные приключения. Он, вроде бы, всегда плывет по течению, но почему-то всегда приплывает к любимым занятиям — застольям и разного рода взрывам. Перезнакомившись, при разных юмористических обстоятельствах, с большинством сильных своего времени — Франко, Труменом, Сталиным — и изрядно повлияв на историю двадцатого века, он остается самим собой.

pic pic pic pic
pic


Качество: HDRip-AVC
Формат: MKV
Продолжительность: 01:54:17
Видео: AVC, 1008x424, 1928 Kbps
Звук: Russian: AC3, 448 kb/s (2 ch) / Swedish: AC3, 512 kb/s (6 ch)
Субтитры: Russian (Ольга Никитина), English, Swedish

General
Unique ID : 239139282811891020009963989745023033714 (0xB3E88CF1CE67BC81A1B649C1E93BA172)
Complete name : G:\ДИСК 2\01.ФИЛЬМЫ\Столетний старик, который вылез в окно и исчез The Centenarian Who Climbed Out the Window and Vanished (2013)\The Centenarian Who Climbed Out the Window and Vanished (2013) HDRip-AVC.mkv
Format : Matroska
Format version : Version 4 / Version 2
File size : 2.27 GiB
Duration : 2h 0mn
Overall bit rate : 2 685 Kbps
Movie name : Release Group CINEMANIA
Encoded date : UTC 2015-02-13 02:27:19
Writing application : mkvmerge v7.5.0 ('Glass Culture') 64bit built on Jan 4 2015 16:48:44
Writing library : libebml v1.3.1 + libmatroska v1.4.2
DURATION : 01:53:10.167000000
NUMBER_OF_FRAMES : 1106
NUMBER_OF_BYTES : 51770
_STATISTICS_WRITING_APP : mkvmerge v7.5.0 ('Glass Culture') 64bit built on Jan 4 2015 16:48:44
_STATISTICS_WRITING_DATE_UTC : 2015-02-13 02:27:19
_STATISTICS_TAGS : BPS DURATION NUMBER_OF_FRAMES NUMBER_OF_BYTES

Video
ID : 1
Format : AVC
Format/Info : Advanced Video Codec
Format profile : High@L4.1
Format settings, CABAC : Yes
Format settings, ReFrames : 8 frames
Codec ID : V_MPEG4/ISO/AVC
Duration : 2h 0mn
Bit rate : 1 928 Kbps
Nominal bit rate : 2 150 Kbps
Width : 1 008 pixels
Height : 424 pixels
Display aspect ratio : 2.40:1
Frame rate mode : Constant
Frame rate : 24.000 fps
Color space : YUV
Chroma subsampling : 4:2:0
Bit depth : 8 bits
Scan type : Progressive
Bits/(Pixel*Frame) : 0.188
Stream size : 1.63 GiB (72%)
Writing library : x264 core 125 r2200 999b753
Encoding settings : cabac=1 / ref=8 / deblock=1:-1:-1 / analyse=0x3:0x133 / me=umh / subme=4 / psy=1 / psy_rd=1.00:0.10 / mixed_ref=1 / me_range=16 / chroma_me=1 / trellis=2 / 8x8dct=1 / cqm=0 / deadzone=21,11 / fast_pskip=0 / chroma_qp_offset=-1 / threads=6 / lookahead_threads=1 / sliced_threads=0 / nr=0 / decimate=1 / interlaced=0 / bluray_compat=0 / constrained_intra=0 / bframes=8 / b_pyramid=2 / b_adapt=2 / b_bias=0 / direct=1 / weightb=1 / open_gop=1 / weightp=2 / keyint=250 / keyint_min=23 / scenecut=40 / intra_refresh=0 / rc_lookahead=50 / rc=abr / mbtree=1 / bitrate=2150 / ratetol=1.0 / qcomp=0.60 / qpmin=0 / qpmax=69 / qpstep=4 / ip_ratio=1.40 / aq=1:1.00
Language : English
Default : Yes
Forced : No

Audio #1
ID : 2
Format : AC-3
Format/Info : Audio Coding 3
Mode extension : CM (complete main)
Format settings, Endianness : Big
Codec ID : A_AC3
Duration : 2h 0mn
Bit rate mode : Constant
Bit rate : 192 Kbps
Channel(s) : 2 channels
Channel positions : Front: L R
Sampling rate : 44.1 KHz
Bit depth : 16 bits
Compression mode : Lossy
Stream size : 166 MiB (7%)
Title : С.Бросалин
Language : Russian
Default : Yes
Forced : No

Audio #2
ID : 3
Format : AC-3
Format/Info : Audio Coding 3
Mode extension : CM (complete main)
Format settings, Endianness : Big
Codec ID : A_AC3
Duration : 2h 0mn
Bit rate mode : Constant
Bit rate : 512 Kbps
Channel(s) : 6 channels
Channel positions : Front: L C R, Side: L R, LFE
Sampling rate : 48.0 KHz
Bit depth : 16 bits
Compression mode : Lossy
Stream size : 443 MiB (19%)
Title : Original
Language : Swedish
Default : No
Forced : No

Text #1
ID : 4
Format : UTF-8
Codec ID : S_TEXT/UTF8
Codec ID/Info : UTF-8 Plain Text
Title : Ольга Никитина
Language : Russian
Default : No
Forced : No

Text #2
ID : 5
Format : UTF-8
Codec ID : S_TEXT/UTF8
Codec ID/Info : UTF-8 Plain Text
Language : English
Default : No
Forced : No

Text #3
ID : 6
Format : UTF-8
Codec ID : S_TEXT/UTF8
Codec ID/Info : UTF-8 Plain Text
Language : Swedish
Default : No
Forced : No

Menu
00:00:00.000 : en:00:00:00.000
00:15:04.917 : en:00:15:04.917
00:30:15.750 : en:00:30:15.750
00:44:48.583 : en:00:44:48.583
00:58:23.083 : en:00:58:23.083
01:14:06.292 : en:01:14:06.292
01:31:16.583 : en:01:31:16.583
01:48:33.750 : en:01:48:33.750



Релиз от: pic
pic


Информация
Информация Скриншоты Пиры Скачавшие Список файлов
Залил Оценка Просмотров Скачан Файлов
АРХАНГЕЛ 0 351551

Теги
комедия, приключения

Похожие раздачи

Столетний старик, который вылез в окно и исчез / The Centenarian Who Climbed Out the Window and Vanished (2013) BDRip 1080p 11.12 GB

Больше похожих раздач →

Список комментариев
Комментарии отсутствуют

Добавить комментарий
Внимание
Гости не могут оставлять комментарии, авторизуйтесь.

Панель навигации

ПОПУЛЯРНЫЕ РАЗДАЧИ
скачать торрент Пассажиры (2016) TSскачать торрент Доктор Стрэндж (2016) TS
скачать торрент Отряд самоубийц (2016) BDRip 1080p | Расширeнная версия | iTunesскачать торрент Плохой Санта 2 (2016) WEB-DLRip | iTunes
скачать торрент Первый мститель: Противостояние (2016) BDRip | IMAX Edition | iTunesскачать торрент Джейсон Борн (2016) HDTV 1080p | Чистый звук
скачать торрент Любовь не по размеру (2016) BDRip | Лицензияскачать торрент Глубоководный горизонт (2016) HDRip | iTunes
скачать торрент Волки и овцы: бе-е-е-зумное превращение (2016) WEB-DLRip | Лицензияскачать торрент Голограмма для короля (2016) HDRip | Лицензия

Будь с нами!


Наши друзья 



Информация, расположенная на данном сервере, предназначена исключительно для частного использования и не может быть загружена/перенесена на другой компьютер. Ни владелец сайта, ни хостинг-провайдер, ни любые другие физические или юридические лица не могут нести никакой отвественностиза любое использование материалов данного сайта.

© 2012-2017 TRACK.KG.