Загрузить Adobe Flash Player
Как тут качать? :: Как встать на раздачу?

Скачать / Download torrent  
Хэш: bce9fbdb2e132329a19a4faf7558f06cbe4ce43f
Добавлен: 7 февраля 2015 в 22:45:15
Категория: Фильмы » Зарубежное кино » Фантастика
Размер: 1.50 GB
Проверил: АРХАНГЕЛ 7 февраля 2015 в 22:45:15

Раздают: 230 Качают: 81

Человек невидимка 2 / Hollow Man 2 (2006) HDRip-AVC | P

pic

«Смерть побеждает незримо...»

Название: Человек невидимка 2
Оригинальное название: Hollow Man 2

Год выхода: 2006
Страна: США / Destination Films, Frontera Productions, Red Wagon Productions
Жанр: ужасы, фантастика, боевик, триллер
Перевод: Профессиональный (многоголосый закадровый)

Режиссер: Клаудио Фах
В ролях: Кристиан Слэйтер, Питер Фачинелли, Лаура Риган, Дэвид Макилрайт, Уильям МакДональд, Сара Дикинс, Джессика Хэрмон, Соня Саломяа, Терри Энн Уэлики, Джон Шоу

О фильме: Эксперименты по достижению невидимости человека увенчались успехом: военные, мечтавшие об идеальном шпионе и диверсанте, в полном восторге. Но ученым так и не удалось справиться с побочными эффектами новой технологии — у невидимок резко повышается уровень агрессии и психической нестабильности. В один ужасный день очередной подопытный по имени Майкл Гриффин выходит из-под контроля и вырывается на свободу. Лишь два человека, знающие тайну незримого убийцы — Френк Тернер и биолог Мэгги Далтон — способны остановить его. Однако спецслужбы вовсе не желают быть уличенными в том, что выпустили на свободу невидимого монстра. И готовы на все, чтобы заставить героев замолчать навеки — как и сам Гриффин...

pic pic pic pic pic
pic

Качество: HDRip-AVC
Формат: MKV
Продолжительность: 01:27:35
Видео: AVC, 1024x432, 2022 Kbps
Звук: AC3, 6 ch, 384 Kbps

General
Unique ID : 241714222043099099314147845514682305389 (0xB5D87740176541EE9C894FCE7BCE0B6D)
Complete name : G:\ДИСК 2\01.ФИЛЬМЫ\Человек невидимка 2 Hollow Man 2 (2006)\Nevidimka2.2006.HDRip-AVC.mkv
Format : Matroska
Format version : Version 4 / Version 2
File size : 1.50 GiB
Duration : 1h 27mn
Overall bit rate : 2 455 Kbps
Encoded date : UTC 2015-02-06 17:33:49
Writing application : mkvmerge v7.5.0 ('Glass Culture') 64bit built on Jan 4 2015 16:48:44
Writing library : libebml v1.3.1 + libmatroska v1.4.2
DURATION : 01:27:35.008000000
NUMBER_OF_FRAMES : 164219
NUMBER_OF_BYTES : 252240384
_STATISTICS_WRITING_APP : mkvmerge v7.5.0 ('Glass Culture') 64bit built on Jan 4 2015 16:48:44
_STATISTICS_WRITING_DATE_UTC : 2015-02-06 17:33:49
_STATISTICS_TAGS : BPS DURATION NUMBER_OF_FRAMES NUMBER_OF_BYTES
Attachment : Yes

Video
ID : 1
Format : AVC
Format/Info : Advanced Video Codec
Format profile : Main@L4.1
Format settings, CABAC : Yes
Format settings, ReFrames : 8 frames
Codec ID : V_MPEG4/ISO/AVC
Duration : 1h 27mn
Bit rate : 2 022 Kbps
Width : 1 024 pixels
Height : 432 pixels
Display aspect ratio : 2.40:1
Frame rate mode : Constant
Frame rate : 25.000 fps
Color space : YUV
Chroma subsampling : 4:2:0
Bit depth : 8 bits
Scan type : Progressive
Bits/(Pixel*Frame) : 0.183
Stream size : 1.24 GiB (82%)
Title : Release by АРХАНГЕЛ
Language : English
Default : Yes
Forced : No

Audio
ID : 2
Format : AC-3
Format/Info : Audio Coding 3
Mode extension : CM (complete main)
Format settings, Endianness : Big
Codec ID : A_AC3
Duration : 1h 27mn
Bit rate mode : Constant
Bit rate : 384 Kbps
Channel(s) : 6 channels
Channel positions : Front: L C R, Side: L R, LFE
Sampling rate : 48.0 KHz
Bit depth : 16 bits
Compression mode : Lossy
Stream size : 241 MiB (16%)
Title : AC3 (MVO)
Language : Russian
Default : Yes
Forced : No



Релиз от: pic
pic


Информация
Информация Скриншоты Пиры Скачавшие Список файлов
Залил Оценка Просмотров Скачан Файлов
АРХАНГЕЛ 0 527531

Теги
ужасы, фантастика, боевик, триллер

Похожие раздачи

Поиск не дал результатов.Больше похожих раздач →

Список комментариев
Комментарии отсутствуют

Добавить комментарий
Внимание
Гости не могут оставлять комментарии, авторизуйтесь.

Панель навигации

ПОПУЛЯРНЫЕ РАЗДАЧИ
скачать торрент Ледокол (2016) WEB-DLRip | iTunesскачать торрент Доктор Стрэндж (2016) TS
скачать торрент Ледокол (2016) WEB-DL 1080p | iTunesскачать торрент Дуэлянт (2016) CAMRip
скачать торрент Отряд самоубийц (2016) BDRip 1080p | Расширeнная версия | iTunesскачать торрент Джейсон Борн (2016) HDTV 720p | Чистый звук
скачать торрент Первый мститель: Противостояние (2016) BDRip | IMAX Edition | iTunesскачать торрент Тарзан. Легенда (2016) HDRip | iTunes
скачать торрент Dark Souls 3: Deluxe Edition (2016) PC | RePack от xatabскачать торрент Люди Икс: Апокалипсис / X-Men: Apocalypse (2016) BDRip 720p | Лицензия

Будь с нами!


Наши друзья 



Информация, расположенная на данном сервере, предназначена исключительно для частного использования и не может быть загружена/перенесена на другой компьютер. Ни владелец сайта, ни хостинг-провайдер, ни любые другие физические или юридические лица не могут нести никакой отвественностиза любое использование материалов данного сайта.

© 2012-2016 TRACK.KG.