Загрузить Adobe Flash Player
Как тут качать? :: Как встать на раздачу?

Скачать / Download torrent  
Хэш: 1971a5c7576408835de5587eee87acec2f513d8e
Добавлен: 6 февраля 2015 в 11:20:42
Категория: Фильмы » Документалки
Размер: 2.05 GB
Проверил: АРХАНГЕЛ 6 февраля 2015 в 11:20:42

Раздают: 32 Качают: 5

Путешествие Металлиста / Metal: A Headbanger's Journey (2005) HDRip-AVC | A

pic

«Фильм, который возьмет Вас за живое сердце »

Название: Путешествие Металлиста
Оригинальное название: Metal: A Headbanger's Journey

Год выхода: 2005
Страна: Канада / 235 Films, Canadian Television Fund, The Ontario Film and Television Tax Credit...
Жанр: документальный, музыка, хэви-метал
Перевод: Авторский (одноголосый) - Михаил Чадов (по переводу Переводмана)
Оригинальная аудиодорожка: английский

Режиссер: Сэм Данн, Скот МакФадьен, Джессика Джой Уайз
В ролях: Крис Адлер, Том Арая, Гэвин Бадделей, Рэнди Блайт, Элис Купер, Брюс Дикинсон, Ронни Джеймс Дио, Малкольм Доме, Сэм Данн, Роберт Эзрин, Джордж Фишер, Эл Гор, Эрнест Ф. Холлингс, Тони Айомми, Джои Джордисон, Джон Кэй, Керри Кинг, Гедди Ли, Том Морелло, Винс Нил, Джеймс Манки Шаффер, Брайан Слэгел, Ди Снайдер, Кори Тейлор, Эдди Транк, Роберт Валсер, Алекс Уэбстер, Роб Зомби

О фильме: В своём фильме Сэм Дан рассказывает о разнообразии направлений рок-музыки как таковой и тяжелого металла в часности! Вы узнаете кто были родоначальники тяжелой музыки, какие существуют направления и стили, и как выглядят поклонники и противники металла.

pic pic pic pic pic

Качество: HDRip-AVC
Формат: MKV
Продолжительность: 01:38:07
Видео: AVC, 1024x576, 2030 Kbps
Звук: Русский, английский: AC3, 6 ch, 448 Кbps
Субтитры: Русские (Форсированные | Перевод песен, названий и др.), русские (Переводман)

pic pic

General
Unique ID : 211066433786777779099148015166869426484 (0x9EC9EAA04D09E662B671FFD0F82B5134)
Complete name : G:\ДИСК 2\01.ФИЛЬМЫ\Путешествие Металлиста Metal A Headbanger's Journey (2005) Metal A Headbanger's Journey (2005) HDRip-AVC.mkv
Format : Matroska
Format version : Version 4 / Version 2
File size : 2.05 GiB
Duration : 1h 38mn
Overall bit rate : 2 986 Kbps
Movie name : Релиз Переулка Переводмана
Encoded date : UTC 2015-02-06 04:42:40
Writing application : mkvmerge v7.5.0 ('Glass Culture') 64bit built on Jan 4 2015 16:48:44
Writing library : libebml v1.3.1 + libmatroska v1.4.2
_STATISTICS_WRITING_APP : mkvmerge v7.5.0 ('Glass Culture') 64bit built on Jan 4 2015 16:48:44
_STATISTICS_WRITING_DATE_UTC : 2015-02-06 04:42:40
_STATISTICS_TAGS : BPS DURATION NUMBER_OF_FRAMES NUMBER_OF_BYTES
DURATION : 01:38:07.632000000
NUMBER_OF_FRAMES : 141162
NUMBER_OF_BYTES : 1536369055
Attachment : Poster.jpg

Video
ID : 1
Format : AVC
Format/Info : Advanced Video Codec
Format profile : Main@L4.1
Format settings, CABAC : Yes
Format settings, ReFrames : 8 frames
Codec ID : V_MPEG4/ISO/AVC
Duration : 1h 38mn
Bit rate : 2 030 Kbps
Width : 1 024 pixels
Height : 576 pixels
Display aspect ratio : 16:9
Frame rate mode : Constant
Frame rate : 23.976 fps
Color space : YUV
Chroma subsampling : 4:2:0
Bit depth : 8 bits
Scan type : Progressive
Bits/(Pixel*Frame) : 0.144
Stream size : 1.39 GiB (68%)
Default : Yes
Forced : No

Audio #1
ID : 2
Format : AC-3
Format/Info : Audio Coding 3
Mode extension : CM (complete main)
Format settings, Endianness : Big
Codec ID : A_AC3
Duration : 1h 38mn
Bit rate mode : Constant
Bit rate : 448 Kbps
Channel(s) : 6 channels
Channel positions : Front: L C R, Side: L R, LFE
Sampling rate : 48.0 KHz
Bit depth : 16 bits
Compression mode : Lossy
Stream size : 314 MiB (15%)
Title : VO М.Чадов | по переводу Переводмана
Language : Russian
Default : Yes
Forced : No

Audio #2
ID : 3
Format : AC-3
Format/Info : Audio Coding 3
Mode extension : CM (complete main)
Format settings, Endianness : Big
Codec ID : A_AC3
Duration : 1h 38mn
Bit rate mode : Constant
Bit rate : 448 Kbps
Channel(s) : 6 channels
Channel positions : Front: L C R, Side: L R, LFE
Sampling rate : 48.0 KHz
Bit depth : 16 bits
Compression mode : Lossy
Stream size : 314 MiB (15%)
Title : Original
Language : English
Default : No
Forced : No

Text #1
ID : 4
Format : UTF-8
Codec ID : S_TEXT/UTF8
Codec ID/Info : UTF-8 Plain Text
Title : Форс сабы | Перевод песен, названий и др.
Language : Russian
Default : Yes
Forced : No

Text #2
ID : 5
Format : UTF-8
Codec ID : S_TEXT/UTF8
Codec ID/Info : UTF-8 Plain Text
Title : Перевод Переводман
Language : Russian
Default : No
Forced : No



Релиз от: pic
pic


Информация
Информация Скриншоты Пиры Скачавшие Список файлов
Залил Оценка Просмотров Скачан Файлов
АРХАНГЕЛ 0 563381

Теги
документальный, музыка, хэви-метал

Похожие раздачи

Поиск не дал результатов.Больше похожих раздач →

Список комментариев
Комментарии отсутствуют

Добавить комментарий
Внимание
Гости не могут оставлять комментарии, авторизуйтесь.

Панель навигации

ПОПУЛЯРНЫЕ РАЗДАЧИ
скачать торрент Ледокол (2016) WEB-DLRip | iTunesскачать торрент Доктор Стрэндж (2016) TS
скачать торрент Ледокол (2016) WEB-DL 1080p | iTunesскачать торрент Дуэлянт (2016) CAMRip
скачать торрент Отряд самоубийц (2016) BDRip 1080p | Расширeнная версия | iTunesскачать торрент Джейсон Борн (2016) HDTV 720p | Чистый звук
скачать торрент Первый мститель: Противостояние (2016) BDRip | IMAX Edition | iTunesскачать торрент Тарзан. Легенда (2016) HDRip | iTunes
скачать торрент Dark Souls 3: Deluxe Edition (2016) PC | RePack от xatabскачать торрент Люди Икс: Апокалипсис / X-Men: Apocalypse (2016) BDRip 720p | Лицензия

Будь с нами!


Наши друзья 



Информация, расположенная на данном сервере, предназначена исключительно для частного использования и не может быть загружена/перенесена на другой компьютер. Ни владелец сайта, ни хостинг-провайдер, ни любые другие физические или юридические лица не могут нести никакой отвественностиза любое использование материалов данного сайта.

© 2012-2016 TRACK.KG.