Загрузить Adobe Flash Player
Как тут качать? :: Как встать на раздачу?

Скачать / Download torrent  
Хэш: 7cec208c5c33591ee90b85423db1e44646b2830e
Добавлен: 5 февраля 2015 в 18:25:26
Категория: Фильмы » Зарубежное кино » Комедии / Пародийные
Размер: 1.49 GB
Проверил: АРХАНГЕЛ 5 февраля 2015 в 18:25:26

Раздают: 552 Качают: 111

Голые перцы / Search Party (2014) WEB-DLRip-AVC | Чистый звук

pic

«Это не просто отпуск. Это – спасательная операция»

Название: Голые перцы
Оригинальное название: Search Party

Год выхода: 2014
Страна: США / Gold Circle Films, RGB Media
Жанр: комедия
Перевод: Дублированное - Чистый звук

Режиссер: Скот Армстронг
В ролях: ТиДжей Миллер, Адам Палли, Томас Миддлдитч, Элисон Бри, Шеннон Мари, Вудворд Кристен, Риттер Лэнс, Реддик Роза Салазар, Джон Глейсер, Джейсон Манцукас

О фильме: Для чего нужен мальчишник? Чтобы отметить последний день свободной жизни? Разделить сомнения с приятелем, который потом на церемонии вякнет, что он против этой свадьбы? Чтобы твоя оскорбленная невеста уехала одна в оплаченное свадебное путешествие в Мексику? Чтобы ты гнался за ней голый по прериям в грузовике с кокаином, отбиваясь от драгбаронов и койотов? …

pic pic pic pic pic

Качество: WEB-DLRip-AVC
Формат: MKV
Продолжительность: 01:29:25
Видео: AVC, 1024x400, 2150 Kbps
Звук: AC3, 2 ch, 192 Kbps

General
Unique ID : 200239018388975174609283412675984667427 (0x96A4A1D4E909752EBB0776D8998CB323)
Complete name : G:\ДИСК 2\01.ФИЛЬМЫ\Голые перцы Search Party (2014)\ G0lye.Percy.2014.D.WEB-DLRip-AVC.mkv
Format : Matroska
Format version : Version 4 / Version 2
File size : 1.49 GiB
Duration : 1h 29mn
Overall bit rate : 2 390 Kbps
Encoded date : UTC 2015-02-05 11:45:59
Writing application : mkvmerge v7.5.0 ('Glass Culture') 64bit built on Jan 4 2015 16:48:44
Writing library : libebml v1.3.1 + libmatroska v1.4.2
DURATION : 01:29:25.632000000
NUMBER_OF_FRAMES : 167676
NUMBER_OF_BYTES : 128775168
_STATISTICS_WRITING_APP : mkvmerge v7.5.0 ('Glass Culture') 64bit built on Jan 4 2015 16:48:44
_STATISTICS_WRITING_DATE_UTC : 2015-02-05 11:45:59
_STATISTICS_TAGS : BPS DURATION NUMBER_OF_FRAMES NUMBER_OF_BYTES

Video
ID : 1
Format : AVC
Format/Info : Advanced Video Codec
Format profile : Main@L4.1
Format settings, CABAC : Yes
Format settings, ReFrames : 8 frames
Codec ID : V_MPEG4/ISO/AVC
Duration : 1h 29mn
Bit rate : 2 150 Kbps
Width : 1 024 pixels
Height : 400 pixels
Display aspect ratio : 2.560
Frame rate mode : Constant
Frame rate : 25.000 fps
Color space : YUV
Chroma subsampling : 4:2:0
Bit depth : 8 bits
Scan type : Progressive
Bits/(Pixel*Frame) : 0.210
Stream size : 1.34 GiB (90%)
Title : Release by АРХАНГЕЛ
Language : English
Default : Yes
Forced : No

Audio
ID : 2
Format : AC-3
Format/Info : Audio Coding 3
Mode extension : CM (complete main)
Format settings, Endianness : Big
Codec ID : A_AC3
Duration : 1h 29mn
Bit rate mode : Constant
Bit rate : 192 Kbps
Channel(s) : 2 channels
Channel positions : Front: L R
Sampling rate : 48.0 KHz
Bit depth : 16 bits
Compression mode : Lossy
Stream size : 123 MiB (8%)
Title : Release by АРХАНГЕЛ
Language : Russian
Default : Yes
Forced : No



Релиз от: pic
pic


Информация
Информация Скриншоты Пиры Скачавшие Список файлов
Залил Оценка Просмотров Скачан Файлов
АРХАНГЕЛ 0 13364461

Теги
комедия

Похожие раздачи

Голые перцы / Search Party (2014) BDRip 1080p | Лицензия 7.90 GB

Голые перцы / Search Party (2014) BDRip 720p | Лицензия 4.62 GB

Голые перцы / Search Party (2014) HDRip | Лицензия 1.46 GB

Больше похожих раздач →

Список комментариев
Комментарии отсутствуют

Добавить комментарий
Внимание
Гости не могут оставлять комментарии, авторизуйтесь.

Панель навигации

ПОПУЛЯРНЫЕ РАЗДАЧИ
скачать торрент Ледокол (2016) WEB-DLRip | iTunesскачать торрент Доктор Стрэндж (2016) TS
скачать торрент Ледокол (2016) WEB-DL 1080p | iTunesскачать торрент Дуэлянт (2016) CAMRip
скачать торрент Отряд самоубийц (2016) BDRip 1080p | Расширeнная версия | iTunesскачать торрент Джейсон Борн (2016) HDTV 720p | Чистый звук
скачать торрент Первый мститель: Противостояние (2016) BDRip | IMAX Edition | iTunesскачать торрент Тарзан. Легенда (2016) HDRip | iTunes
скачать торрент Dark Souls 3: Deluxe Edition (2016) PC | RePack от xatabскачать торрент Люди Икс: Апокалипсис / X-Men: Apocalypse (2016) BDRip 720p | Лицензия

Будь с нами!


Наши друзья 



Информация, расположенная на данном сервере, предназначена исключительно для частного использования и не может быть загружена/перенесена на другой компьютер. Ни владелец сайта, ни хостинг-провайдер, ни любые другие физические или юридические лица не могут нести никакой отвественностиза любое использование материалов данного сайта.

© 2012-2016 TRACK.KG.