Загрузить Adobe Flash Player
Как тут качать? :: Как встать на раздачу?

Скачать / Download torrent  
Хэш: a7c584cd3dc7021ca9cdb085fffa8d02e9ac3d49
Добавлен: 5 февраля 2015 в 00:46:09
Категория: Фильмы » Зарубежное кино » Ужасы
Размер: 1.82 GB
Проверил: АРХАНГЕЛ 5 февраля 2015 в 00:46:09

Раздают: 94 Качают: 53

Клиника страха / Fear Clinic (2014) WEB-DLRip-AVC | L2

pic

Название: Клиника страха
Оригинальное название: Fear Clinic

Год выхода: 2014
Страна: США / Dry County Films LLC, Misfit Minds Entertainment, Producer Capital Fund...
Жанр: ужасы
Перевод: Любительский (двухголосый) - DeadSno & den904 (перевод dsa69)
Оригинальная аудиодорожка: English

Режиссер: Роберт Холл
В ролях: Роберт Инглунд, Томас Деккер, Фиона Дуриф, Кевин Гейдж, Фелиша Террелл, Брэндон Бимер, Бонни Морган, Анджелина Армани, Клеопатра Коулмэн, Кори Тейлор

О фильме: После нападения террориста на кафе, психика оставшихся в живых посетителей пострадала настолько, что у них начали появляться и обостряться самые различные фобии. Стремясь избавиться от постоянного страха, превратившего их жизнь в непрекращающийся кошмар, они обращаются к доктору Эндевору, главе клиники, исследующей страх и занимающейся излечением людей от фобий. Однако новаторская экспериментальная метода доктора впускает в наш мир нечто ужасное и непобедимое.

pic pic pic pic pic

Качество: WEB-DLRip-AVC
Формат: MKV
Продолжительность: 01:35:26
Видео: AVC , 1024x424, 2106 Kbps
Звук: Russian: AC3, 192 kbps (2 ch) / English: AC3, 384 kbps (6 ch)
Субтитры: English

pic ВНИМАНИЕ!!! Запрещен к просмотру, лицам младше 18 лет!

General
Unique ID : 202132785501522241420779272833180553388 (0x98115BC25446EB41B2FDB15B1B86D0AC)
Complete name : G:\ДИСК 2\01.ФИЛЬМЫ\Клиника страха Fear Clinic (2014)\ Fear Clinic (2014) WEB-DLRip-AVC.mkv
Format : Matroska
Format version : Version 4 / Version 2
File size : 1.82 GiB
Duration : 1h 35mn
Overall bit rate : 2 736 Kbps
Encoded date : UTC 2015-02-04 16:46:44
Writing application : mkvmerge v7.5.0 ('Glass Culture') 64bit built on Jan 4 2015 16:48:44
Writing library : libebml v1.3.1 + libmatroska v1.4.2
DURATION : 01:34:52.017000000
NUMBER_OF_FRAMES : 1419
NUMBER_OF_BYTES : 51547
_STATISTICS_WRITING_APP : mkvmerge v7.5.0 ('Glass Culture') 64bit built on Jan 4 2015 16:48:44
_STATISTICS_WRITING_DATE_UTC : 2015-02-04 16:46:44
_STATISTICS_TAGS : BPS DURATION NUMBER_OF_FRAMES NUMBER_OF_BYTES

Video
ID : 1
Format : AVC
Format/Info : Advanced Video Codec
Format profile : Main@L4.1
Format settings, CABAC : Yes
Format settings, ReFrames : 8 frames
Codec ID : V_MPEG4/ISO/AVC
Duration : 1h 35mn
Bit rate : 2 106 Kbps
Width : 1 024 pixels
Height : 424 pixels
Display aspect ratio : 2.40:1
Frame rate mode : Constant
Frame rate : 23.976 fps
Color space : YUV
Chroma subsampling : 4:2:0
Bit depth : 8 bits
Scan type : Progressive
Bits/(Pixel*Frame) : 0.202
Stream size : 1.40 GiB (77%)
Title : Release by АРХАНГЕЛ
Language : English
Default : Yes
Forced : No

Audio #1
ID : 2
Format : AC-3
Format/Info : Audio Coding 3
Mode extension : CM (complete main)
Format settings, Endianness : Big
Codec ID : A_AC3
Duration : 1h 35mn
Bit rate mode : Constant
Bit rate : 192 Kbps
Channel(s) : 2 channels
Channel positions : Front: L R
Sampling rate : 48.0 KHz
Bit depth : 16 bits
Compression mode : Lossy
Stream size : 131 MiB (7%)
Title : Release by АРХАНГЕЛ
Language : Russian
Default : Yes
Forced : No

Audio #2
ID : 3
Format : AC-3
Format/Info : Audio Coding 3
Mode extension : CM (complete main)
Format settings, Endianness : Big
Codec ID : A_AC3
Duration : 1h 35mn
Bit rate mode : Constant
Bit rate : 384 Kbps
Channel(s) : 6 channels
Channel positions : Front: L C R, Side: L R, LFE
Sampling rate : 48.0 KHz
Bit depth : 16 bits
Compression mode : Lossy
Stream size : 262 MiB (14%)
Title : Release by АРХАНГЕЛ
Language : English
Default : No
Forced : No

Text
ID : 4
Format : UTF-8
Codec ID : S_TEXT/UTF8
Codec ID/Info : UTF-8 Plain Text
Default : Yes
Forced : No

Menu
00:00:00.000 : en:Main Titles
00:03:48.000 : en:Open Your Eyes
00:10:26.000 : en:Fear Aftershocks
00:18:35.000 : en:"I Saw The Shooter"
00:26:04.000 : en:Fear Waste
00:33:59.000 : en:Not Over
00:40:21.000 : en:"I Don't Want To Remember Everything"
00:51:15.000 : en:"I See Monsters"
00:59:52.000 : en:Sucked In
01:10:06.000 : en:Worse Than Death
01:21:37.000 : en:"Fear Never Dies"
01:31:17.000 : en:End Credits



Релиз от: pic
pic


Информация
Информация Скриншоты Пиры Скачавшие Список файлов
Залил Оценка Просмотров Скачан Файлов
АРХАНГЕЛ 0 337331

Теги
ужасы

Похожие раздачи

Поиск не дал результатов.Больше похожих раздач →

Список комментариев
Комментарии отсутствуют

Добавить комментарий
Внимание
Гости не могут оставлять комментарии, авторизуйтесь.

Панель навигации

ПОПУЛЯРНЫЕ РАЗДАЧИ
скачать торрент Ледокол (2016) WEB-DLRip | iTunesскачать торрент Доктор Стрэндж (2016) TS
скачать торрент Ледокол (2016) WEB-DL 1080p | iTunesскачать торрент Дуэлянт (2016) CAMRip
скачать торрент Отряд самоубийц (2016) BDRip 1080p | Расширeнная версия | iTunesскачать торрент Джейсон Борн (2016) HDTV 720p | Чистый звук
скачать торрент Первый мститель: Противостояние (2016) BDRip | IMAX Edition | iTunesскачать торрент Тарзан. Легенда (2016) HDRip | iTunes
скачать торрент Dark Souls 3: Deluxe Edition (2016) PC | RePack от xatabскачать торрент Люди Икс: Апокалипсис / X-Men: Apocalypse (2016) BDRip 720p | Лицензия

Будь с нами!


Наши друзья 



Информация, расположенная на данном сервере, предназначена исключительно для частного использования и не может быть загружена/перенесена на другой компьютер. Ни владелец сайта, ни хостинг-провайдер, ни любые другие физические или юридические лица не могут нести никакой отвественностиза любое использование материалов данного сайта.

© 2012-2016 TRACK.KG.