Загрузить Adobe Flash Player
Как тут качать? :: Как встать на раздачу?

Скачать / Download torrent  
Хэш: 25345ede822a9332278fd4037a0989a5ab876dcb
Добавлен: 4 февраля 2015 в 14:27:09
Категория: Мультфильмы
Размер: 1.56 GB
Проверил: АРХАНГЕЛ 4 февраля 2015 в 13:35:14

Раздают: 5 Качают: 3

Барби: Супер Принцесса / Barbie in Princess Power (2015) BDRip-AVC | Лицензия

pic

Название: Барби: Супер Принцесса
Оригинальное название: Barbie in Princess Power

Год выхода: 2015
Страна: США / Mattel Playground Productions
Жанр: Мультфильм, приключения, детский, семейный
Перевод: Дублированный – Лицензия
Оригинальная аудиодорожка: английский

Режиссер: Зик Нортон
В ролях: Бриттни Ирвин, Майкл Копса, Келли Шеридан...

О фильме: Барби блистает в роли Кары, современной принцессы, которая живет самой обыкновенной жизнью. Но после поцелуя волшебной бабочки Кара обнаруживает, что обладает магическими силами и может превращаться в Супер Принцессу, которая летает по всему королевству и готова победить любое зло. Однако ее завистливая кузина ловит волшебную бабочку и также трансформируется – но уже в Темную Принцессу! Борьба принцесс накаляется до предела, но, узнав, что у королевства появился настоящий серьезный враг, смогут ли они объединиться в одну команду, забыв о прошлых разногласиях? Взлетай выше, и ты увидишь, что самая могущественная сила – это сила дружбы!

pic pic pic pic

Качество: BDRip-AVC
Формат: MKV
Продолжительность: 01:13:46
Видео: AVC, 1024x576, 2067 Kbps
Звук: русский / английский: AC3, 6 ch, 448 Kbps
Субтитры: aнглийские

General
Unique ID : 187106581336762180125143193558788520042 (0x8CC36AB2049DD5FC8167415AB40AB86A)
Complete name : G:\ДИСК 2\04.МУЛЬТФИЛЬМЫ\Барби Супер Принцесса Barbie in Princess Power (2015)\Barbie in Princess Power (2015) BDRip-AVC.mkv
Format : Matroska
Format version : Version 4 / Version 2
File size : 1.56 GiB
Duration : 1h 13mn
Overall bit rate : 3 023 Kbps
Movie name : Барби: Супер Принцесса / Barbie in Princess Power (2015)
Encoded date : UTC 2015-02-04 08:19:00
Writing application : mkvmerge v7.5.0 ('Glass Culture') 64bit built on Jan 4 2015 16:48:44
Writing library : libebml v1.3.1 + libmatroska v1.4.2
_STATISTICS_WRITING_APP : mkvmerge v7.5.0 ('Glass Culture') 64bit built on Jan 4 2015 16:48:44
_STATISTICS_WRITING_DATE_UTC : 2015-02-04 08:19:00
_STATISTICS_TAGS : BPS DURATION NUMBER_OF_FRAMES NUMBER_OF_BYTES
DURATION : 01:09:05.015000000
NUMBER_OF_FRAMES : 1349
NUMBER_OF_BYTES : 32302

Video
ID : 1
Format : AVC
Format/Info : Advanced Video Codec
Format profile : Main@L4.1
Format settings, CABAC : Yes
Format settings, ReFrames : 6 frames
Codec ID : V_MPEG4/ISO/AVC
Duration : 1h 13mn
Bit rate : 2 067 Kbps
Width : 1 024 pixels
Height : 576 pixels
Display aspect ratio : 16:9
Frame rate mode : Constant
Frame rate : 23.976 fps
Color space : YUV
Chroma subsampling : 4:2:0
Bit depth : 8 bits
Scan type : Progressive
Bits/(Pixel*Frame) : 0.146
Stream size : 1.06 GiB (68%)
Title : Release by АРХАНГЕЛ
Language : English
Default : Yes
Forced : No

Audio #1
ID : 2
Format : AC-3
Format/Info : Audio Coding 3
Mode extension : CM (complete main)
Format settings, Endianness : Big
Codec ID : A_AC3
Duration : 1h 13mn
Bit rate mode : Constant
Bit rate : 448 Kbps
Channel(s) : 6 channels
Channel positions : Front: L C R, Side: L R, LFE
Sampling rate : 48.0 KHz
Bit depth : 16 bits
Compression mode : Lossy
Stream size : 236 MiB (15%)
Title : Release by АРХАНГЕЛ
Language : Russian
Default : Yes
Forced : No

Audio #2
ID : 3
Format : AC-3
Format/Info : Audio Coding 3
Mode extension : CM (complete main)
Format settings, Endianness : Big
Codec ID : A_AC3
Duration : 1h 13mn
Bit rate mode : Constant
Bit rate : 448 Kbps
Channel(s) : 6 channels
Channel positions : Front: L C R, Side: L R, LFE
Sampling rate : 48.0 KHz
Bit depth : 16 bits
Compression mode : Lossy
Stream size : 236 MiB (15%)
Title : Release by АРХАНГЕЛ
Language : English
Default : No
Forced : No

Text
ID : 4
Format : UTF-8
Codec ID : S_TEXT/UTF8
Codec ID/Info : UTF-8 Plain Text
Title : Eng
Language : English
Default : No
Forced : No

Menu
00:00:00.000 : :Chapter 01
00:04:49.497 : :Chapter 02
00:09:22.186 : :Chapter 03
00:16:23.774 : :Chapter 04
00:23:26.196 : :Chapter 05
00:28:24.160 : :Chapter 06
00:33:44.313 : :Chapter 07
00:40:29.051 : :Chapter 08
00:48:55.223 : :Chapter 09
00:55:24.779 : :Chapter 10
01:00:39.093 : :Chapter 11
01:07:41.182 : :Chapter 12
01:13:46.380 : :Chapter 13



Релиз от: pic
pic


Информация
Информация Скриншоты Пиры Скачавшие Список файлов
Залил Оценка Просмотров Скачан Файлов
АРХАНГЕЛ 0 497711

Теги
мультфильм, приключения, детский, семейный

Похожие раздачи

Барби и команда шпионов / Barbie: Spy Squad (2016) HDRip-AVC | Лицензия 1.66 GB

Барби и команда шпионов / Barbie: Spy Squad (2016) DVDRip | Чистый звук 1.37 GB

Барби и щенки в поисках сокровищ / Barbie & Her Sisters in the Great Puppy Adventure (2015) DVDRip | Чистый звук 1.37 GB

Барби и медведь (2 серии из 2) (2014) HDTVRip 1.37 GB

Барби и медведь (серии 01-02 из 02) (2014) HDTV 1080i 13.37 GB

Барби: Приключения Русалочки 2 / Barbie in a Mermaid Tale 2 (2012) [Фэнтези, Семейный, Мультфильм] DVDRip | MVO 1.37 GB

Больше похожих раздач →

Список комментариев
Комментарии отсутствуют

Добавить комментарий
Внимание
Гости не могут оставлять комментарии, авторизуйтесь.

Панель навигации

ПОПУЛЯРНЫЕ РАЗДАЧИ
скачать торрент Ледокол (2016) WEB-DLRip | iTunesскачать торрент Доктор Стрэндж (2016) TS
скачать торрент Ледокол (2016) WEB-DL 1080p | iTunesскачать торрент Дуэлянт (2016) CAMRip
скачать торрент Отряд самоубийц (2016) BDRip 1080p | Расширeнная версия | iTunesскачать торрент Джейсон Борн (2016) HDTV 720p | Чистый звук
скачать торрент Первый мститель: Противостояние (2016) BDRip | IMAX Edition | iTunesскачать торрент Тарзан. Легенда (2016) HDRip | iTunes
скачать торрент Dark Souls 3: Deluxe Edition (2016) PC | RePack от xatabскачать торрент Люди Икс: Апокалипсис / X-Men: Apocalypse (2016) BDRip 720p | Лицензия

Будь с нами!


Наши друзья 



Информация, расположенная на данном сервере, предназначена исключительно для частного использования и не может быть загружена/перенесена на другой компьютер. Ни владелец сайта, ни хостинг-провайдер, ни любые другие физические или юридические лица не могут нести никакой отвественностиза любое использование материалов данного сайта.

© 2012-2016 TRACK.KG.