Загрузить Adobe Flash Player
Как тут качать? :: Как встать на раздачу?

Скачать / Download torrent  
Хэш: 424a382a81a7e38cd8f931d100f808da65e2bfb9
Добавлен: 3 февраля 2015 в 15:49:26
Категория: Мультфильмы
Размер: 2.91 GB
Проверил: АРХАНГЕЛ 3 февраля 2015 в 15:49:26

Раздают: 271 Качают: 65

Небесный меч / Heavenly Sword (2014) WEB-DLRip 720p | L1

pic

Название: Небесный меч
Оригинальное название: Heavenly Sword

Год выхода: 2014
Страна: США / AZ Works, Blockade Entertainment
Жанр: мультфильм, фэнтези, боевик, приключения
Перевод: Любительский (одноголосый) - Павел Морозов aka PashaUp (Перевод на русский: Lakfakalle-Team)
Оригинальная аудиодорожка: английский

Режиссер: Ган Хо Джанг
В ролях: Анна Торв, Томас Джейн, Альфред Молина

О фильме: Полнометражный мультфильм по известной игре Heavenly Sword. Тысячи лет прошло с тех времен, когда злостный король по имени Ворон захватил практически всю земли и вскоре должна была покрылся во тьму и ужас для простых людей. Но против него выступил небесный посланник, дабы прекратить эту несправедливость. В жестоком бою он смог одолеть ужасного царя и мир снова стал светлым и спокойным. В результате этого боя, в месте сражения появился небесный меч, который обладает огромной силой. Тот, кто обладает им, может изменить все на своем пути – либо ввести в процветание, либо вовсе его разрушить…

pic pic pic pic

Качество: WEB-DLRip 720p
Формат: MKV
Продолжительность: 01:26:31
Видео: MPEG-4 AVC, 1280x720, 3882 Kbps
Звук: русский: AC3, 6 ch, ~ 448 Kbps / английский: AC3, 6 ch, ~ 384 Kbps
Субтитры: английские

General
Unique ID : 201730323936475309061867391368819098839 (0x97C3D8DF378658E6B554A8BC08A7C4D7)
Complete name : G:\ДИСК 2\04.МУЛЬТФИЛЬМЫ\Небесный меч Heavenly Sword (2014)\Sub\Heavenly.Sword.2014.WEB-DL.720p.mkv
Format : Matroska
Format version : Version 4 / Version 2
File size : 2.91 GiB
Duration : 1h 26mn
Overall bit rate : 4 810 Kbps
Encoded date : UTC 2015-02-03 08:40:39
Writing application : mkvmerge v7.5.0 ('Glass Culture') 64bit built on Jan 4 2015 16:48:44
Writing library : libebml v1.3.1 + libmatroska v1.4.2
DURATION : 01:19:46.881000000
NUMBER_OF_FRAMES : 760
NUMBER_OF_BYTES : 23028
_STATISTICS_WRITING_APP : mkvmerge v7.5.0 ('Glass Culture') 64bit built on Jan 4 2015 16:48:44
_STATISTICS_WRITING_DATE_UTC : 2015-02-03 08:40:39
_STATISTICS_TAGS : BPS DURATION NUMBER_OF_FRAMES NUMBER_OF_BYTES
Attachment : Yes / Yes / Yes / Yes

Video
ID : 1
Format : AVC
Format/Info : Advanced Video Codec
Format profile : Main@L4.1
Format settings, CABAC : Yes
Format settings, ReFrames : 6 frames
Codec ID : V_MPEG4/ISO/AVC
Duration : 1h 26mn
Bit rate : 3 882 Kbps
Width : 1 280 pixels
Height : 720 pixels
Display aspect ratio : 16:9
Frame rate mode : Constant
Frame rate : 23.976 fps
Color space : YUV
Chroma subsampling : 4:2:0
Bit depth : 8 bits
Scan type : Progressive
Bits/(Pixel*Frame) : 0.176
Stream size : 2.35 GiB (81%)
Language : English
Default : Yes
Forced : No

Audio #1
ID : 2
Format : AC-3
Format/Info : Audio Coding 3
Mode extension : CM (complete main)
Format settings, Endianness : Big
Codec ID : A_AC3
Duration : 1h 26mn
Bit rate mode : Constant
Bit rate : 448 Kbps
Channel(s) : 6 channels
Channel positions : Front: L C R, Side: L R, LFE
Sampling rate : 48.0 KHz
Bit depth : 16 bits
Compression mode : Lossy
Stream size : 277 MiB (9%)
Title : PashaUp
Language : Russian
Default : Yes
Forced : No

Audio #2
ID : 3
Format : AC-3
Format/Info : Audio Coding 3
Mode extension : CM (complete main)
Format settings, Endianness : Big
Codec ID : A_AC3
Duration : 1h 26mn
Bit rate mode : Constant
Bit rate : 384 Kbps
Channel(s) : 6 channels
Channel positions : Front: L C R, Side: L R, LFE
Sampling rate : 48.0 KHz
Bit depth : 16 bits
Compression mode : Lossy
Stream size : 238 MiB (8%)
Title : Heavenly.Sword.2014.WEB-DL.DD5.1.H264-RARBG
Language : English
Default : No
Forced : No

Text
ID : 4
Format : UTF-8
Codec ID : S_TEXT/UTF8
Codec ID/Info : UTF-8 Plain Text
Language : English
Default : Yes
Forced : No

Menu
00:00:00.000 : en:Legend of the Sword
00:10:25.000 : en:King Bohan Attacks
00:20:21.000 : en:Search for Chosen One
00:33:43.000 : en:Father’s Sins
00:45:04.000 : en:Battle for the Sword
01:00:05.000 : en:Fighting for Kai
01:13:21.000 : en:Hell Beckons
01:21:34.000 : en:Credits



Релиз от: pic
pic


Информация
Информация Скриншоты Пиры Скачавшие Список файлов
Залил Оценка Просмотров Скачан Файлов
АРХАНГЕЛ +1 394601

Теги
мультфильм, фэнтези, боевик, приключения

Похожие раздачи

Небесный верблюд (2015) HDTVRip 1.36 GB

Небесный меч / Heavenly Sword (2014) HDRip | L1 1.36 GB

Небесный легион / Cheon gun (2005) DVDRip | P 911.48 MB

Небесный тихоход (1945) DVD9 5.56 GB

Небесный суд (2012) WEB-DLRip 1.37 GB

Небесный суд (2012) WEB-DL 720p 2.75 GB

Небесный суд (2011) [драма] {4 серии из 4} DVDRip| Лицензия 2.73 GB

Больше похожих раздач →

Список комментариев
Комментарии отсутствуют

Добавить комментарий
Внимание
Гости не могут оставлять комментарии, авторизуйтесь.

Панель навигации

ПОПУЛЯРНЫЕ РАЗДАЧИ
скачать торрент Ледокол (2016) WEB-DLRip | iTunesскачать торрент Доктор Стрэндж (2016) TS
скачать торрент Ледокол (2016) WEB-DL 1080p | iTunesскачать торрент Дуэлянт (2016) CAMRip
скачать торрент Отряд самоубийц (2016) BDRip 1080p | Расширeнная версия | iTunesскачать торрент Джейсон Борн (2016) HDTV 720p | Чистый звук
скачать торрент Первый мститель: Противостояние (2016) BDRip | IMAX Edition | iTunesскачать торрент Тарзан. Легенда (2016) HDRip | iTunes
скачать торрент Dark Souls 3: Deluxe Edition (2016) PC | RePack от xatabскачать торрент Люди Икс: Апокалипсис / X-Men: Apocalypse (2016) BDRip 720p | Лицензия

Будь с нами!


Наши друзья 



Информация, расположенная на данном сервере, предназначена исключительно для частного использования и не может быть загружена/перенесена на другой компьютер. Ни владелец сайта, ни хостинг-провайдер, ни любые другие физические или юридические лица не могут нести никакой отвественностиза любое использование материалов данного сайта.

© 2012-2016 TRACK.KG.