Загрузить Adobe Flash Player
Как тут качать? :: Как встать на раздачу?

Скачать / Download torrent  
Хэш: be631d7a03a256a77d93c1432a383b8aa184de31
Добавлен: 29 января 2015 в 13:08:58
Категория: Мультфильмы
Размер: 2.98 GB
Проверил: АРХАНГЕЛ 29 января 2015 в 13:08:58

Раздают: 116 Качают: 42

Эпоха Дракона: Рождение Искательницы / Dragon Age: Dawn of the Seeker / Dragon Age: Blood Mage no Seisen (2012) BDRip 720p | Р.

pic

Название: Эпоха Дракона: Рождение Искательницы
Оригинальное название: Dragon Age: Dawn of the Seeker / Dragon Age: Blood Mage no Seisen

Год выхода: 2012
Страна: США, Япония / Bioware, Oxybot, Toneplus Animation Studios...
Жанр: мультфильм, фэнтези, приключения
Перевод: Профессиональный (многоголосый - студия Яскъер , Любительский (мнгоголосый) - SHIZA (NIKITOS, Faraway, BalFor, Sonata, SakaE, FruKt, Viki, Lizaveta), Любительский (мнгоголосый) - Renegade team (Zohan, Vina, Molibden, Blank, Zlo)
Оригинальная аудиодорожка: японский

Режиссер: Сори Фумихико
В ролях: Коллин Клинкенберд, Дж. Майкл Татум, Чак Хубер, Р. Брюс Эллиот, Кристофер Сабат, Джон Свэйзи, Моника Риал...

О фильме: В землях Орлея юная и дерзкая Искательница Кассандра сражается в попытке остановить кровавый заговор. Неизвестные стремятся разорвать на части самый могущественный религиозный орден, и по мере развития зловещего плана Кассандра подпадает под обвинение в измене и убийстве.
Преследуемая друзьями и врагами, импульсивная красотка должна очистить свое имя, сталкиваясь с продажными храмовниками и мятежными магами крови. Неудача для нее означает одно — клинок палача. Но если ей удастся совладать со своим гневом и раскрыть тайные силы, угрожающие правлению Верховной жрицы, имя Кассандры займет место в легендах.

pic pic pic pic

Качество: BDRip 720p
Формат: MKV
Продолжительность: 01:29:10
Видео: AVC, 1280x720, 3000 Kbps
Звук: Русский ([студия Яскъер], [SHIZA], [Renegade team]) / японский: AC3, 6 ch,448 Kbps
Субтитры: русские (Kos, Reaper, AleX_MytH & BO3DYX [ass, srt] внешние)

General
Unique ID : 232919271212560856935704734590487522547 (0xAF3A9EB21D52DFED91585CC9242C6CF3)
Complete name : G:\ДИСК 2\04.МУЛЬТФИЛЬМЫ\Эпоха Дракона Рождение Искательницы Dragon Age Dawn of the Seeker Dragon Age Blood Mage no Seisen (2012)\Dragon Age - Blood Mage no Seisen\Dragon Age Blood Mage no Seisen (2012) BDRip 720p.mkv
Format : Matroska
Format version : Version 2
File size : 2.98 GiB
Duration : 1h 29mn
Overall bit rate : 4 791 Kbps
Movie name : Dragon.Age.Dawn.Of.The.Seeker.2012.1080p.BluRay.AC3.x264-CtrlHD
Encoded date : UTC 2013-03-08 15:03:44
Writing application : mkvmerge v5.8.0 ('No Sleep / Pillow') built on Sep 2 2012 15:37:04
Writing library : libebml v1.2.3 + libmatroska v1.3.0

Video
ID : 1
Format : AVC
Format/Info : Advanced Video Codec
Format profile : High@L4.1
Format settings, CABAC : Yes
Format settings, ReFrames : 9 frames
Codec ID : V_MPEG4/ISO/AVC
Duration : 1h 29mn
Bit rate : 3 000 Kbps
Width : 1 280 pixels
Height : 720 pixels
Display aspect ratio : 16:9
Frame rate mode : Constant
Frame rate : 23.976 fps
Color space : YUV
Chroma subsampling : 4:2:0
Bit depth : 8 bits
Scan type : Progressive
Bits/(Pixel*Frame) : 0.136
Stream size : 1.81 GiB (61%)
Writing library : x264 core 125 r2200 999b753
Encoding settings : cabac=1 / ref=9 / deblock=1:-1:-1 / analyse=0x3:0x113 / me=umh / subme=10 / psy=1 / psy_rd=0.80:0.00 / mixed_ref=1 / me_range=32 / chroma_me=1 / trellis=2 / 8x8dct=1 / cqm=0 / deadzone=21,11 / fast_pskip=0 / chroma_qp_offset=-2 / threads=18 / lookahead_threads=3 / sliced_threads=0 / nr=0 / decimate=0 / interlaced=0 / bluray_compat=0 / constrained_intra=0 / bframes=8 / b_pyramid=2 / b_adapt=2 / b_bias=0 / direct=3 / weightb=1 / open_gop=0 / weightp=2 / keyint=240 / keyint_min=24 / scenecut=40 / intra_refresh=0 / rc=2pass / mbtree=0 / bitrate=3000 / ratetol=1.0 / qcomp=0.75 / qpmin=0 / qpmax=69 / qpstep=4 / cplxblur=20.0 / qblur=0.5 / ip_ratio=1.40 / pb_ratio=1.30 / aq=1:1.10
Language : English
Default : Yes
Forced : No

Audio #1
ID : 2
Format : AC-3
Format/Info : Audio Coding 3
Mode extension : CM (complete main)
Format settings, Endianness : Big
Codec ID : A_AC3
Duration : 1h 29mn
Bit rate mode : Constant
Bit rate : 448 Kbps
Channel(s) : 6 channels
Channel positions : Front: L C R, Side: L R, LFE
Sampling rate : 48.0 KHz
Bit depth : 16 bits
Compression mode : Lossy
Stream size : 286 MiB (9%)
Title : студия Яскъер
Language : Russian
Default : No
Forced : No

Audio #2
ID : 3
Format : AC-3
Format/Info : Audio Coding 3
Mode extension : CM (complete main)
Format settings, Endianness : Big
Codec ID : A_AC3
Duration : 1h 29mn
Bit rate mode : Constant
Bit rate : 448 Kbps
Channel(s) : 6 channels
Channel positions : Front: L C R, Side: L R, LFE
Sampling rate : 48.0 KHz
Bit depth : 16 bits
Compression mode : Lossy
Stream size : 286 MiB (9%)
Title : SHIZA
Default : No
Forced : No

Audio #3
ID : 4
Format : AC-3
Format/Info : Audio Coding 3
Mode extension : CM (complete main)
Format settings, Endianness : Big
Codec ID : A_AC3
Duration : 1h 29mn
Bit rate mode : Constant
Bit rate : 448 Kbps
Channel(s) : 6 channels
Channel positions : Front: L C R, Side: L R, LFE
Sampling rate : 48.0 KHz
Bit depth : 16 bits
Compression mode : Lossy
Stream size : 286 MiB (9%)
Title : Renegade Team
Language : Russian
Default : No
Forced : Yes

Audio #4
ID : 5
Format : AC-3
Format/Info : Audio Coding 3
Mode extension : CM (complete main)
Format settings, Endianness : Big
Codec ID : A_AC3
Duration : 1h 29mn
Bit rate mode : Constant
Bit rate : 448 Kbps
Channel(s) : 6 channels
Channel positions : Front: L C R, Side: L R, LFE
Sampling rate : 48.0 KHz
Bit depth : 16 bits
Compression mode : Lossy
Stream size : 286 MiB (9%)
Title : Original
Default : No
Forced : No

Menu
00:00:00.000 : en:00:00:00.000
00:00:53.053 : en:00:00:53.053
00:02:42.162 : en:00:02:42.162
00:08:33.513 : en:00:08:33.513
00:11:32.692 : en:00:11:32.692
00:15:01.067 : en:00:15:01.067
00:17:48.776 : en:00:17:48.776
00:22:11.539 : en:00:22:11.539
00:27:27.396 : en:00:27:27.396
00:32:07.634 : en:00:32:07.634
00:33:26.379 : en:00:33:26.379
00:36:37.195 : en:00:36:37.195
00:40:57.455 : en:00:40:57.455
00:43:47.625 : en:00:43:47.625
00:48:29.281 : en:00:48:29.281
00:53:40.134 : en:00:53:40.134
00:56:30.637 : en:00:56:30.637
00:59:28.273 : en:00:59:28.273
01:02:17.025 : en:01:02:17.025
01:05:23.545 : en:01:05:23.545
01:07:33.007 : en:01:07:33.007
01:11:26.991 : en:01:11:26.991
01:15:31.777 : en:01:15:31.777
01:20:45.966 : en:01:20:45.966
01:25:02.097 : en:01:25:02.097



Релиз от: pic
pic


Информация
Информация Скриншоты Пиры Скачавшие Список файлов
Залил Оценка Просмотров Скачан Файлов
АРХАНГЕЛ +1 508523

Теги
мультфильм, фэнтези, приключения

Похожие раздачи

Эпоха Дракона: Искупление / 1 сезон / Dragon Age: Redemption (2011) [Фэнтези, Приключения] WEB-DLRip-AVC | MVO {StopGame} + Eng 740.18 MB

Эпоха дракона Рождение Искательницы / Dragon Age Dawn of the Seeker (2012) [мультфильм, фэнтези, приключения] HDRip | VO + Eng + 1.93 GB

Больше похожих раздач →

Список комментариев
Комментарии отсутствуют

Добавить комментарий
Внимание
Гости не могут оставлять комментарии, авторизуйтесь.

Панель навигации

ПОПУЛЯРНЫЕ РАЗДАЧИ
скачать торрент Ледокол (2016) WEB-DLRip | iTunesскачать торрент Доктор Стрэндж (2016) TS
скачать торрент Ледокол (2016) WEB-DL 1080p | iTunesскачать торрент Дуэлянт (2016) CAMRip
скачать торрент Отряд самоубийц (2016) BDRip 1080p | Расширeнная версия | iTunesскачать торрент Джейсон Борн (2016) HDTV 720p | Чистый звук
скачать торрент Первый мститель: Противостояние (2016) BDRip | IMAX Edition | iTunesскачать торрент Тарзан. Легенда (2016) HDRip | iTunes
скачать торрент Dark Souls 3: Deluxe Edition (2016) PC | RePack от xatabскачать торрент Люди Икс: Апокалипсис / X-Men: Apocalypse (2016) BDRip 720p | Лицензия

Будь с нами!


Наши друзья 



Информация, расположенная на данном сервере, предназначена исключительно для частного использования и не может быть загружена/перенесена на другой компьютер. Ни владелец сайта, ни хостинг-провайдер, ни любые другие физические или юридические лица не могут нести никакой отвественностиза любое использование материалов данного сайта.

© 2012-2016 TRACK.KG.