Загрузить Adobe Flash Player
Как тут качать? :: Как встать на раздачу?

Скачать / Download torrent  
Хэш: 54af3c8411bf167bbbf0cf3554ff58f78387b6de
Добавлен: 27 января 2015 в 10:31:29
Категория: Фильмы » Зарубежное кино » Триллеры / Криминал
Размер: 2.21 GB
Проверил: АРХАНГЕЛ 27 января 2015 в 10:31:29

Раздают: 469 Качают: 63

Потерянный рай / Escobar: Paradise Lost (2014) WEB-DLRip-AVC | L2

pic

«Добро пожаловать в семью»

Название: Потерянный рай
Оригинальное название: Escobar: Paradise Lost

Год выхода: 2014
Страна: Франция, Испания, Бельгия, Панама / Chapter 2, Nexus Factory, Roxbury Pictures...
Жанр: триллер, мелодрама
Перевод: Любительский (двухголосый) - Райм Закиров aka RAIM & GUGU
Оригинальная аудиодорожка: English

Режиссер: Андреа Ди Стефано
В ролях: Джош Хатчерсон, Бенисио Дель Торо, Брэйди Корбет, Клаудия Траисак, Карлос Бардем, Ана Жирардо, Лаура Лондоньо, Лорен Зимски, Хуан Франсиско Селлес, Аарон Зебеде

О фильме: Молодой серфер Ник приезжает к своему брату в Колумбию, где по уши влюбляется в местную девушку по имени Мария и купается в счастье ровно до тех пор, пока Мария не знакомит его со своим дядей — знаменитым наркобароном Пабло Эскобаром.

pic pic pic pic pic

Качество: WEB-DLRip-AVC
Формат: MKV
Продолжительность: 01:59:28
Видео: AVC, 1024x432, 2018 Kbps
Звук: Russian: AC3, 192 kb/s (2 ch) / English: AC3, 384 kb/s (6 ch)
Субтитры: English (на испанскую речь)

General
Unique ID : 248071170709741716991439111606159117867 (0xBAA0C50490AED9BE819FF9E396798E2B)
Complete name : G:\ДИСК 2\01.ФИЛЬМЫ\Потерянный рай Escobar Paradise Lost (2014)\Escobar.Paradise.Lost.2014.WEB-DL.Rip-AVC.mkv
Format : Matroska
Format version : Version 4 / Version 2
File size : 2.21 GiB
Duration : 1h 59mn
Overall bit rate : 2 647 Kbps
Movie name : Release Group CINEMANIA
Encoded date : UTC 2015-01-27 03:46:05
Writing application : mkvmerge v7.5.0 ('Glass Culture') 64bit built on Jan 4 2015 16:48:44
Writing library : libebml v1.3.1 + libmatroska v1.4.2
DURATION : 01:59:28.128000000
NUMBER_OF_FRAMES : 224004
NUMBER_OF_BYTES : 344070144
_STATISTICS_WRITING_APP : mkvmerge v7.5.0 ('Glass Culture') 64bit built on Jan 4 2015 16:48:44
_STATISTICS_WRITING_DATE_UTC : 2015-01-27 03:46:05
_STATISTICS_TAGS : BPS DURATION NUMBER_OF_FRAMES NUMBER_OF_BYTES

Video
ID : 1
Format : AVC
Format/Info : Advanced Video Codec
Format profile : Main@L4.1
Format settings, CABAC : Yes
Format settings, ReFrames : 8 frames
Codec ID : V_MPEG4/ISO/AVC
Duration : 1h 59mn
Bit rate : 2 018 Kbps
Width : 1 024 pixels
Height : 432 pixels
Display aspect ratio : 2.40:1
Frame rate mode : Constant
Frame rate : 24.000 fps
Color space : YUV
Chroma subsampling : 4:2:0
Bit depth : 8 bits
Scan type : Progressive
Bits/(Pixel*Frame) : 0.190
Stream size : 1.68 GiB (76%)
Language : English
Default : Yes
Forced : No

Audio #1
ID : 2
Format : AC-3
Format/Info : Audio Coding 3
Mode extension : CM (complete main)
Format settings, Endianness : Big
Codec ID : A_AC3
Duration : 1h 59mn
Bit rate mode : Constant
Bit rate : 192 Kbps
Channel(s) : 2 channels
Channel positions : Front: L R
Sampling rate : 48.0 KHz
Bit depth : 16 bits
Compression mode : Lossy
Stream size : 164 MiB (7%)
Title : RAIM & GUGU
Language : Russian
Default : Yes
Forced : Yes

Audio #2
ID : 3
Format : AC-3
Format/Info : Audio Coding 3
Mode extension : CM (complete main)
Format settings, Endianness : Big
Codec ID : A_AC3
Duration : 1h 59mn
Bit rate mode : Constant
Bit rate : 384 Kbps
Channel(s) : 6 channels
Channel positions : Front: L C R, Side: L R, LFE
Sampling rate : 48.0 KHz
Bit depth : 16 bits
Compression mode : Lossy
Stream size : 328 MiB (15%)
Language : English
Default : No
Forced : No



Релиз от: pic
pic


Информация
Информация Скриншоты Пиры Скачавшие Список файлов
Залил Оценка Просмотров Скачан Файлов
АРХАНГЕЛ 0 340491

Теги
триллер, мелодрама

Похожие раздачи

Потерянный север / Perdiendo el norte (2015) HDRip | L1 2.05 GB

Приключения Бэйли: Потерянный щенок / Adventures of Bailey: The Lost Puppy (2010) HDTVRip | P 1.45 GB

Потерянный рай / Escobar: Paradise Lost (2014) HDRip | Лицензия 1.46 GB

Потерянный рейс / United 93 (2006) BDRemux 1080p 27.21 GB

Том и Джерри: Потерянный дракон / Tom & Jerry: The Lost Dragon (2014) BDRip 720p | Лицензия 2.37 GB

Потерянный орех / Gone Nutty (2002) [мультфильм, короткометражка, комедия, семейный] BDRip 72.85 MB

Исчезающая Амазонка - Потерянный рай (2010) [Документальный] HDTV 5.75 GB

Больше похожих раздач →

Список комментариев
Комментарии отсутствуют

Добавить комментарий
Внимание
Гости не могут оставлять комментарии, авторизуйтесь.

Панель навигации

ПОПУЛЯРНЫЕ РАЗДАЧИ
скачать торрент Ледокол (2016) WEB-DLRip | iTunesскачать торрент Доктор Стрэндж (2016) TS
скачать торрент Ледокол (2016) WEB-DL 1080p | iTunesскачать торрент Дуэлянт (2016) CAMRip
скачать торрент Отряд самоубийц (2016) BDRip 1080p | Расширeнная версия | iTunesскачать торрент Джейсон Борн (2016) HDTV 720p | Чистый звук
скачать торрент Первый мститель: Противостояние (2016) BDRip | IMAX Edition | iTunesскачать торрент Тарзан. Легенда (2016) HDRip | iTunes
скачать торрент Полтора шпиона (2016) BDRip 1080p | Лицензияскачать торрент Джейсон Борн (2016) HDTV 1080p | Чистый звук

Будь с нами!


Наши друзья 



Информация, расположенная на данном сервере, предназначена исключительно для частного использования и не может быть загружена/перенесена на другой компьютер. Ни владелец сайта, ни хостинг-провайдер, ни любые другие физические или юридические лица не могут нести никакой отвественностиза любое использование материалов данного сайта.

© 2012-2016 TRACK.KG.