Загрузить Adobe Flash Player
Как тут качать? :: Как встать на раздачу?

Скачать / Download torrent  
Хэш: 6655c455815698d149b362ba83cafae49780eb0c
Добавлен: 26 января 2015 в 13:26:58
Категория: Фильмы » Фильмы HD / BD
Размер: 1.41 GB
Проверил: АРХАНГЕЛ 26 января 2015 в 13:21:53

Раздают: 54 Качают: 78

Снимать на поражение (2012) WEBRip 720p

pic

«Вторых дублей не будет»

Название: Снимать на поражение

Год выхода: 2012
Страна: Беларусь
Жанр: Боевик, Триллер, Комедия
Перевод: Не требуется (русский)

Режиссер: Кирилл Нонг
В ролях: Василий Свиридов, Александр Лисовский, Вадим Хейфец, Дмитрий Булгаков, Екатерина Бондарева...

О фильме: Потеряв всякую надежду воплотить гениальную, по его мнению, идею, при поддержке продюсеров, молодой режиссер решает снять фильм, без посторонней помощи. Но его одержимость и безумный подход к съемке шпионского боевика приводят всю команду к конфликту с настоящими спецагентами.

pic pic pic pic

Качество: WEBRip 720p
Формат: MKV
Продолжительность: 00:48:18
Видео: MPEG-4 AVC, 1280x544, 3833 Kbps
Звук: AC3, 2 ch, 256 Kbps
General
Unique ID : 196028185099328782047932208815231835643 (0x9379A7B8BD9912FABB661008807D9DFB)
Complete name : G:\ДИСК 2\02.ФИЛЬМЫ СНГ\Снимать на поражение (2012)\Snimat na poragenie (2012) WEBRip 720p.mkv
Format : Matroska
Format version : Version 4 / Version 2
File size : 1.41 GiB
Duration : 48mn 18s
Overall bit rate : 4 172 Kbps
Encoded date : UTC 2015-01-26 07:00:59
Writing application : mkvmerge v7.5.0 ('Glass Culture') 64bit built on Jan 4 2015 16:48:44
Writing library : libebml v1.3.1 + libmatroska v1.4.2
DURATION : 00:48:18.432000000
NUMBER_OF_FRAMES : 90576
NUMBER_OF_BYTES : 92749824
_STATISTICS_WRITING_APP : mkvmerge v7.5.0 ('Glass Culture') 64bit built on Jan 4 2015 16:48:44
_STATISTICS_WRITING_DATE_UTC : 2015-01-26 07:00:59
_STATISTICS_TAGS : BPS DURATION NUMBER_OF_FRAMES NUMBER_OF_BYTES

Video
ID : 1
Format : AVC
Format/Info : Advanced Video Codec
Format profile : Main@L4.1
Format settings, CABAC : Yes
Format settings, ReFrames : 8 frames
Codec ID : V_MPEG4/ISO/AVC
Duration : 48mn 18s
Bit rate : 3 833 Kbps
Width : 1 280 pixels
Height : 544 pixels
Display aspect ratio : 2.35:1
Frame rate mode : Constant
Frame rate : 25.000 fps
Color space : YUV
Chroma subsampling : 4:2:0
Bit depth : 8 bits
Scan type : Progressive
Bits/(Pixel*Frame) : 0.220
Stream size : 1.29 GiB (92%)
Language : English
Default : Yes
Forced : No

Audio
ID : 2
Format : AC-3
Format/Info : Audio Coding 3
Mode extension : CM (complete main)
Format settings, Endianness : Big
Codec ID : A_AC3
Duration : 48mn 18s
Bit rate mode : Constant
Bit rate : 256 Kbps
Channel(s) : 2 channels
Channel positions : Front: L R
Sampling rate : 48.0 KHz
Bit depth : 16 bits
Compression mode : Lossy
Stream size : 88.5 MiB (6%)
Language : Russian
Default : Yes
Forced : No



Релиз от: pic
pic


Информация
Информация Скриншоты Пиры Скачавшие Список файлов
Залил Оценка Просмотров Скачан Файлов
АРХАНГЕЛ 0 505471

Теги
боевик, триллер, комедия

Похожие раздачи

Поиск не дал результатов.Больше похожих раздач →

Список комментариев
Комментарии отсутствуют

Добавить комментарий
Внимание
Гости не могут оставлять комментарии, авторизуйтесь.

Панель навигации

ПОПУЛЯРНЫЕ РАЗДАЧИ
скачать торрент Пассажиры (2016) TSскачать торрент Доктор Стрэндж (2016) TS
скачать торрент Отряд самоубийц (2016) BDRip 1080p | Расширeнная версия | iTunesскачать торрент Плохой Санта 2 (2016) WEB-DLRip | iTunes
скачать торрент Первый мститель: Противостояние (2016) BDRip | IMAX Edition | iTunesскачать торрент Джейсон Борн (2016) HDTV 1080p | Чистый звук
скачать торрент Любовь не по размеру (2016) BDRip | Лицензияскачать торрент Глубоководный горизонт (2016) HDRip | iTunes
скачать торрент Волки и овцы: бе-е-е-зумное превращение (2016) WEB-DLRip | Лицензияскачать торрент Голограмма для короля (2016) HDRip | Лицензия

Будь с нами!


Наши друзья 



Информация, расположенная на данном сервере, предназначена исключительно для частного использования и не может быть загружена/перенесена на другой компьютер. Ни владелец сайта, ни хостинг-провайдер, ни любые другие физические или юридические лица не могут нести никакой отвественностиза любое использование материалов данного сайта.

© 2012-2017 TRACK.KG.