Загрузить Adobe Flash Player
Как тут качать? :: Как встать на раздачу?

Скачать / Download torrent  
Хэш: 5ac16a30f26d2a02ca9b6e3e935ab83965032152
Добавлен: 10 января 2015 в 12:05:50
Категория: Игры » Игровое видео
Размер: 3.06 GB
Проверил: АРХАНГЕЛ 10 января 2015 в 12:05:50

Раздают: 433 Качают: 80

Смертельная битва / Mortal Kombat (2011) WEBRip 720p | L1

pic

Название: Смертельная битва
Оригинальное название: Mortal Kombat

Год выхода: 2011
Страна: США / NetherRealm Studios, Warner Bros. Interactive Entertainment (WBIE)
Жанр: фэнтези, боевик, триллер, приключения, игрофильм
Перевод: Любительский (двухголосый)

Режиссер: Доминик Киансиоло
В ролях: Терренс «Т.К.» Карсон, Мэттью Мерсер, Карен Страссман, Майкл Патрик Джэнн, Лани Минелла, Майкл МакКоннохи, Ричард Эпкар

О фильме: Фильм не станет продолжать сюжет первых двух фильмов, а «перезагрузит» его, рассказав всё с чистого листа. Как и прежде, действие фильма развернется вокруг одноименного турнира, на который сошлись лучшие бойцы мира.

pic pic

Качество: WEBRip 720p
Формат: MKV
Продолжительность: 01:56:12
Видео: AVC, 1280x720, 3432 Kbps
Звук: AC3, 2 ch, 256 Kbps
Субтитры: русские (не отключаемые)

General
Unique ID : 180727748095073054679908960996376989124 (0x87F6E5EF5F93CF538C7114E9C8B84DC4)
Complete name : H:\ДИСК 3\04.МУЛЬТФИЛЬМЫ\Смертельная битва Mortal Kombat\Новая папка\Mortal Kombat (2011) WEBRip 720p.mkv
Format : Matroska
Format version : Version 2
File size : 3.06 GiB
Duration : 1h 56mn
Overall bit rate : 3 766 Kbps
Encoded date : UTC 2015-01-10 05:20:53
Writing application : mkvmerge v5.8.0 ('No Sleep / Pillow') built on Sep 2 2012 15:37:04
Writing library : libebml v1.2.3 + libmatroska v1.3.0

Video
ID : 1
Format : AVC
Format/Info : Advanced Video Codec
Format profile : Main@L4.1
Format settings, CABAC : Yes
Format settings, ReFrames : 8 frames
Muxing mode : Header stripping
Codec ID : V_MPEG4/ISO/AVC
Duration : 1h 56mn
Bit rate : 3 435 Kbps
Width : 1 280 pixels
Height : 720 pixels
Display aspect ratio : 16:9
Frame rate mode : Constant
Frame rate : 29.970 fps
Color space : YUV
Chroma subsampling : 4:2:0
Bit depth : 8 bits
Scan type : Progressive
Bits/(Pixel*Frame) : 0.124
Stream size : 2.79 GiB (91%)
Language : English
Default : Yes
Forced : No

Audio
ID : 2
Format : AC-3
Format/Info : Audio Coding 3
Mode extension : CM (complete main)
Format settings, Endianness : Big
Muxing mode : Header stripping
Codec ID : A_AC3
Duration : 1h 56mn
Bit rate mode : Constant
Bit rate : 256 Kbps
Channel(s) : 2 channels
Channel positions : Front: L R
Sampling rate : 48.0 KHz
Bit depth : 16 bits
Compression mode : Lossy
Stream size : 213 MiB (7%)
Language : Russian
Default : Yes
Forced : No



Релиз от: pic
pic


Информация
Информация Скриншоты Пиры Скачавшие Список файлов
Залил Оценка Просмотров Скачан Файлов
АРХАНГЕЛ 0 752551

Теги
фэнтези, боевик, триллер, приключения, игрофильм

Похожие раздачи

Поиск не дал результатов.Больше похожих раздач →

Список комментариев
Комментарии отсутствуют

Добавить комментарий
Внимание
Гости не могут оставлять комментарии, авторизуйтесь.

Панель навигации

ПОПУЛЯРНЫЕ РАЗДАЧИ
скачать торрент Ледокол (2016) WEB-DLRip | iTunesскачать торрент Доктор Стрэндж (2016) TS
скачать торрент Ледокол (2016) WEB-DL 1080p | iTunesскачать торрент Дуэлянт (2016) CAMRip
скачать торрент Отряд самоубийц (2016) BDRip 1080p | Расширeнная версия | iTunesскачать торрент Джейсон Борн (2016) HDTV 720p | Чистый звук
скачать торрент Первый мститель: Противостояние (2016) BDRip | IMAX Edition | iTunesскачать торрент Тарзан. Легенда (2016) HDRip | iTunes
скачать торрент Полтора шпиона (2016) BDRip 1080p | Лицензияскачать торрент Джейсон Борн (2016) HDTV 1080p | Чистый звук

Будь с нами!


Наши друзья 



Информация, расположенная на данном сервере, предназначена исключительно для частного использования и не может быть загружена/перенесена на другой компьютер. Ни владелец сайта, ни хостинг-провайдер, ни любые другие физические или юридические лица не могут нести никакой отвественностиза любое использование материалов данного сайта.

© 2012-2016 TRACK.KG.