Скачать / Download torrent  
Добавлен: 10 января 2015 в 00:47:02
Категория: Мультфильмы
Размер: 1.22 GB
Проверил: АРХАНГЕЛ 10 января 2015 в 00:47:02

Раздают: 256 Качают: 89

Застрявшие во времени / Frozen in Time (2014) HDTVRip 720p | L1

pic


Название: Застрявшие во времени
Оригинальное название: Frozen in Time

Год выхода: 2014
Страна: США
Жанр: мультфильм, приключения, семейный
Перевод: Одноголосый закадровый - Max Nabokov
Оригинальная аудиодорожка: Английский

Режиссер: Стиг Бергквист / Stig Bergqvist, Пол Димайер / Paul Demeyer
Роли озвучивали: Эдвард Эснер, Дрейк Белл, Валин Шиней, Мира Сорвино

О фильме: Случилось, что в канун Рождества, Пети и Эрик Портл забрались в мастерскую своего дедушки, несмотря на то, что родители стого-настрого запрещали им это делать. Там они испортили необыкновенные часы, способные останавливать время. И в тот же миг они стали проживать этот день заново. Но, то что сперва казалось забавным, быстро надоело. Теперь им предстоит разобраться от чего они застряли в этом дне. Может причина в их плохом поведении и еще не поздно все исправить. Ведь иначе, Рождество никогда не наступит.

pic pic pic

Качество: HDTVRip 720p
Формат: MKV
Продолжительность: 00:43:49
Видео: AVC, 1280x720, ~3035 kbps
Звук: Русский, Английский: AC3 Dolby Digital, 3/2 (L,C,R,l,r) + LFE ch, ~448 kbps
Субтитры: английские

General
Unique ID : 189015676116104660951246170742321668057 (0x8E331855CA6422E9B28FA99AB3295FD9)
Complete name : H:\ДИСК 3\04.МУЛЬТФИЛЬМЫ\Застрявшие во времени Frozen in Time (2014)\Frozen in Time.2014.HDTVRip 720p.mkv
Format : Matroska
Format version : Version 4 / Version 2
File size : 1.22 GiB
Duration : 43mn 49s
Overall bit rate : 4 001 Kbps
Movie name : Frozen in Time.2014.HDTVRip 720p -Azureus-
Encoded date : UTC 2015-01-06 19:39:36
Writing application : mkvmerge v7.5.0 ('Glass Culture') 32bit built on Jan 4 2015 16:37:25
Writing library : libebml v1.3.1 + libmatroska v1.4.2
DURATION : 00:43:49.664000000
NUMBER_OF_FRAMES : 82177
NUMBER_OF_BYTES : 147261184
_STATISTICS_WRITING_APP : mkvmerge v7.5.0 ('Glass Culture') 32bit built on Jan 4 2015 16:37:25
_STATISTICS_WRITING_DATE_UTC : 2015-01-06 19:39:36
_STATISTICS_TAGS : BPS DURATION NUMBER_OF_FRAMES NUMBER_OF_BYTES

Video
ID : 1
Format : AVC
Format/Info : Advanced Video Codec
Format profile : High@L4.1
Format settings, CABAC : Yes
Format settings, ReFrames : 5 frames
Codec ID : V_MPEG4/ISO/AVC
Duration : 43mn 49s
Bit rate : 3 026 Kbps
Width : 1 280 pixels
Height : 720 pixels
Display aspect ratio : 16:9
Frame rate mode : Constant
Frame rate : 23.976 fps
Color space : YUV
Chroma subsampling : 4:2:0
Bit depth : 8 bits
Scan type : Progressive
Bits/(Pixel*Frame) : 0.137
Stream size : 949 MiB (76%)
Writing library : x264 core 142 r2491 24e4fed
Encoding settings : cabac=1 / ref=5 / deblock=1:0:0 / analyse=0x3:0x113 / me=umh / subme=8 / psy=1 / psy_rd=1.00:0.00 / mixed_ref=1 / me_range=16 / chroma_me=1 / trellis=1 / 8x8dct=1 / cqm=0 / deadzone=21,11 / fast_pskip=1 / chroma_qp_offset=-2 / threads=12 / lookahead_threads=2 / sliced_threads=0 / nr=0 / decimate=1 / interlaced=0 / bluray_compat=0 / constrained_intra=0 / bframes=3 / b_pyramid=2 / b_adapt=2 / b_bias=0 / direct=3 / weightb=1 / open_gop=0 / weightp=2 / keyint=250 / keyint_min=25 / scenecut=40 / intra_refresh=0 / rc_lookahead=50 / rc=crf / mbtree=1 / crf=18.0 / qcomp=0.60 / qpmin=0 / qpmax=69 / qpstep=4 / ip_ratio=1.40 / aq=1:1.00
Language : English
Default : Yes
Forced : No

Audio #1
ID : 2
Format : AC-3
Format/Info : Audio Coding 3
Mode extension : CM (complete main)
Format settings, Endianness : Big
Codec ID : A_AC3
Duration : 43mn 49s
Bit rate mode : Constant
Bit rate : 448 Kbps
Channel(s) : 6 channels
Channel positions : Front: L C R, Side: L R, LFE
Sampling rate : 48.0 KHz
Bit depth : 16 bits
Compression mode : Lossy
Stream size : 140 MiB (11%)
Title : VO - Max Nabokov
Language : Russian
Default : Yes
Forced : No

Audio #2
ID : 3
Format : AC-3
Format/Info : Audio Coding 3
Mode extension : CM (complete main)
Format settings, Endianness : Big
Codec ID : A_AC3
Duration : 43mn 49s
Bit rate mode : Constant
Bit rate : 448 Kbps
Channel(s) : 6 channels
Channel positions : Front: L C R, Side: L R, LFE
Sampling rate : 48.0 KHz
Bit depth : 16 bits
Compression mode : Lossy
Stream size : 140 MiB (11%)
Title : ENG
Language : English
Default : No
Forced : No

Text
ID : 4
Format : UTF-8
Codec ID : S_TEXT/UTF8
Codec ID/Info : UTF-8 Plain Text
Title : Eng Sub
Language : English
Default : No
Forced : No



Релиз от: pic
pic


Информация
Информация Скриншоты Пиры Скачавшие Список файлов
Залил Оценка Просмотров Скачан Файлов
АРХАНГЕЛ 0 555701

Теги
мультфильм, приключения, семейный

Похожие раздачи

Поиск не дал результатов.Больше похожих раздач →

Список комментариев
Комментарии отсутствуют

Добавить комментарий
Внимание
Гости не могут оставлять комментарии, авторизуйтесь.

Панель навигации

ПОПУЛЯРНЫЕ РАЗДАЧИ
скачать торрент Пассажиры (2016) TSскачать торрент Отряд самоубийц (2016) BDRip 1080p | Расширeнная версия | iTunes
скачать торрент Плохой Санта 2 (2016) WEB-DLRip | iTunesскачать торрент Первый мститель: Противостояние (2016) BDRip | IMAX Edition | iTunes
скачать торрент Джейсон Борн (2016) HDTV 1080p | Чистый звукскачать торрент Любовь не по размеру (2016) BDRip | Лицензия
скачать торрент Глубоководный горизонт (2016) HDRip | iTunesскачать торрент Волки и овцы: бе-е-е-зумное превращение (2016) WEB-DLRip | Лицензия
скачать торрент Голограмма для короля (2016) HDRip | Лицензияскачать торрент День независимости: Возрождение (2016) BDRip | Лицензия


Информация, расположенная на данном сервере, предназначена исключительно для частного использования и не может быть загружена/перенесена на другой компьютер. Ни владелец сайта, ни хостинг-провайдер, ни любые другие физические или юридические лица не могут нести никакой отвественностиза любое использование материалов данного сайта.

© 2012-2017 TRACK.KG.