Загрузить Adobe Flash Player
Как тут качать? :: Как встать на раздачу?

Скачать / Download torrent  
Хэш: 5c19cd18308916d06aaa2dd939074797202b3e63
Добавлен: 7 января 2015 в 16:44:49
Категория: Фильмы » Зарубежное кино » Комедии / Пародийные
Размер: 2.10 GB
Проверил: АРХАНГЕЛ 7 января 2015 в 16:44:49

Раздают: 2 Качают: 1

«Старый» Новый год / New Year's Eve (2011) BDRip-AVC | D | Лицензия

pic

«Начинаем обратный отсчет»

Название: «Старый» Новый год
Оригинальное название: New Year's Eve

Год выхода: 2011
Страна: США / Karz Entertainment, New Line Cinema, New York Streets Film Projects, Rice Films
Жанр: мелодрама, комедия
Перевод: Дублированный – Лицензия

Режиссер: Гэрри Маршалл
В ролях: Холли Берри, Джессика Бил, Джон Бон Джови, Эбигейл Бреслин, Лудакрис, Роберт Де Ниро, Джош Дюамель, Зак Эфрон, Гектор Элизондо, Кэтрин Хейгл, Тиль Швайгер, Эштон Катчер, Сара Джессика Паркер, Мишель Пфайффер, Алисса Милано

О фильме: Герои фильма — жители города, который никогда не спит. Нью-Йорк накануне Нового года переплетет жизни нескольких героев: умирающего в больнице пожилого человека, секретаршу, решившую осуществить данные себе обещания, продюсера знаменитого новогоднего шоу на Таймс Сквер, человека, который вообще ненавидит этот праздник.
pic pic pic pic pic

Качество: BDRip-AVC
Формат: MKV
Продолжительность: 01:57:55
Видео: AVC, 1024x576, 2 055 Kbps
Звук: AC3, 6 ch, 448 Kbps
Субтитры: Русскиe(полные, форсированные), Украинскиe(полные, форсированные), Английскиe

General
Unique ID : 173245468456215883920774817028957064155 (0x8255DD112620E37FBFEFC1CA7928CBDB)
Complete name : H:\New Years Eve.2011.BDRip-AVC.mkv
Format : Matroska
Format version : Version 2
File size : 2.10 GiB
Duration : 1h 57mn
Overall bit rate : 2 554 Kbps
Movie name : Release by Leonardo for Scarabey.org
Encoded date : UTC 2015-01-07 06:27:14
Writing application : mkvmerge v5.8.0 ('No Sleep / Pillow') built on Sep 2 2012 15:37:04
Writing library : libebml v1.2.3 + libmatroska v1.3.0
Attachment : Yes

Video
ID : 1
Format : AVC
Format/Info : Advanced Video Codec
Format profile : Main@L4.1
Format settings, CABAC : Yes
Format settings, ReFrames : 4 frames
Muxing mode : Header stripping
Codec ID : V_MPEG4/ISO/AVC
Duration : 1h 57mn
Bit rate : 2 055 Kbps
Width : 1 024 pixels
Height : 576 pixels
Display aspect ratio : 16:9
Frame rate mode : Constant
Frame rate : 23.976 fps
Color space : YUV
Chroma subsampling : 4:2:0
Bit depth : 8 bits
Scan type : Progressive
Bits/(Pixel*Frame) : 0.145
Stream size : 1.69 GiB (80%)
Language : English
Default : Yes
Forced : No

Audio
ID : 2
Format : AC-3
Format/Info : Audio Coding 3
Mode extension : CM (complete main)
Format settings, Endianness : Big
Muxing mode : Header stripping
Codec ID : A_AC3
Duration : 1h 57mn
Bit rate mode : Constant
Bit rate : 448 Kbps
Channel(s) : 6 channels
Channel positions : Front: L C R, Side: L R, LFE
Sampling rate : 48.0 KHz
Bit depth : 16 bits
Compression mode : Lossy
Stream size : 378 MiB (18%)
Language : Russian
Default : Yes
Forced : No

Text #1
ID : 3
Format : UTF-8
Codec ID : S_TEXT/UTF8
Codec ID/Info : UTF-8 Plain Text
Title : Forced
Language : Russian
Default : Yes
Forced : Yes

Text #2
ID : 4
Format : UTF-8
Codec ID : S_TEXT/UTF8
Codec ID/Info : UTF-8 Plain Text
Title : Full
Language : Russian
Default : No
Forced : No

Text #3
ID : 5
Format : UTF-8
Codec ID : S_TEXT/UTF8
Codec ID/Info : UTF-8 Plain Text
Title : Forced
Language : Ukrainian
Default : No
Forced : No

Text #4
ID : 6
Format : UTF-8
Codec ID : S_TEXT/UTF8
Codec ID/Info : UTF-8 Plain Text
Title : Full
Language : Ukrainian
Default : No
Forced : No

Text #5
ID : 7
Format : UTF-8
Codec ID : S_TEXT/UTF8
Codec ID/Info : UTF-8 Plain Text
Title : SDH
Language : English
Default : No
Forced : No

Menu
00:00:00.000 : en:00:00:00.000
00:09:24.147 : en:00:09:24.147
00:20:55.546 : en:00:20:55.546
00:29:31.979 : en:00:29:31.979
00:39:52.557 : en:00:39:52.557
00:49:09.947 : en:00:49:09.947
00:59:05.959 : en:00:59:05.959
01:09:57.235 : en:01:09:57.235
01:19:26.512 : en:01:19:26.512
01:29:40.625 : en:01:29:40.625
01:38:59.433 : en:01:38:59.433
01:48:19.410 : en:01:48:19.410



Релиз от: pic
pic


Информация
Информация Скриншоты Пиры Скачавшие Список файлов
Залил Оценка Просмотров Скачан Файлов
АРХАНГЕЛ 0 445531

Теги
мелодрама, комедия

Похожие раздачи

Comedy Баттл. Новый сезон (1-30 выпуск) (2016) SATRip 19.49 GB

Новый уровень / Level Up (2016) WEB-DLRip | L1 1.45 GB

Новый Comedy Club (эфир от 26.08.2016) WEB-DL 720p 1.25 GB

Новый Comedy Club (эфир от 26.08.2016) SATRip 592.65 MB

Морская полиция: Новый Орлеан (2 сезон: 1-24 серии из 24) (2015) WEB-DL 720p | BaibaKo 33.93 GB

Новый Comedy Club (эфир от 10.06.2016) WEB-DL 720p 1.26 GB

Новый Comedy Club (эфир от 17.06.2016) SATRip 663.81 MB

Новый Comedy Club (эфир от 10.06.2016) WEB-DL 720p 1.17 GB

Новый Comedy Club (эфир от 10.06.2016) SATRip 618.32 MB

Новый Comedy Club в Сочи (эфир от 03.06.2016) SATRip 619.41 MB

Больше похожих раздач →

Список комментариев
Комментарии отсутствуют

Добавить комментарий
Внимание
Гости не могут оставлять комментарии, авторизуйтесь.

Панель навигации

ПОПУЛЯРНЫЕ РАЗДАЧИ
скачать торрент Ледокол (2016) WEB-DLRip | iTunesскачать торрент Доктор Стрэндж (2016) TS
скачать торрент Ледокол (2016) WEB-DL 1080p | iTunesскачать торрент Дуэлянт (2016) CAMRip
скачать торрент Отряд самоубийц (2016) BDRip 1080p | Расширeнная версия | iTunesскачать торрент Джейсон Борн (2016) HDTV 720p | Чистый звук
скачать торрент Первый мститель: Противостояние (2016) BDRip | IMAX Edition | iTunesскачать торрент Тарзан. Легенда (2016) HDRip | iTunes
скачать торрент Dark Souls 3: Deluxe Edition (2016) PC | RePack от xatabскачать торрент Люди Икс: Апокалипсис / X-Men: Apocalypse (2016) BDRip 720p | Лицензия

Будь с нами!


Наши друзья 



Информация, расположенная на данном сервере, предназначена исключительно для частного использования и не может быть загружена/перенесена на другой компьютер. Ни владелец сайта, ни хостинг-провайдер, ни любые другие физические или юридические лица не могут нести никакой отвественностиза любое использование материалов данного сайта.

© 2012-2016 TRACK.KG.