Загрузить Adobe Flash Player
Как тут качать? :: Как встать на раздачу?

Скачать / Download torrent  
Хэш: 05be40fef7e85c3fe29c7505439ba7207a29850a
Добавлен: 6 января 2015 в 14:04:27
Категория: Фильмы » Зарубежное кино » Комедии / Пародийные
Размер: 1.66 GB
Проверил: АРХАНГЕЛ 6 января 2015 в 14:04:27

Раздают: 558 Качают: 95

Реальные упыри / Чем мы занимаемся в тени / What We Do in the Shadows (2014) BDRip-AVC | P2

pic

«Лучшая комедия года! Всякие интервьюхи с вампирами.»

Название: Реальные упыри / Чем мы занимаемся в тени
Оригинальное название: What We Do in the Shadows

Год выхода: 2014
Страна: Новая Зеландия / Defender Films, Funny or Die, New Zealand Film Commission, Unison Films
Жанр: ужасы, комедия
Перевод: Профессиональное (многоголосное) - Ozz
Оригинальная аудиодорожка: English

Режиссер: Джемейн Клемент, Таика Вайтити
В ролях: Джемейн Клемент, Таика Вайтити, Стюарт Рутерфорд, Бен Френшам, Джеки ван Бик, Джейсон Хойте

О фильме: История жизни Виаго, Дикона и Владислава — трёх соседей и по совместительству бессмертных вампиров, которые всего лишь пытаются выжить в современном мире, где есть арендная плата, фейсконтроль в ночных клубах, губительный солнечный свет и другие неприятности.

pic pic pic pic
pic

Качество: BDRip-AVC
Формат: MKV
Продолжительность: 01:25:23
Видео: AVC, 1024x544, 2 024 kd/s
Звук: Russian: AC3, 192 kb/s (2 ch) / English: AC3, 512 kb/s (6 ch)

General
Unique ID : 244143246130225860352345073293750884468 (0xB7AC4762558CD4A2B05E3ECAF37ED874)
Complete name : H:\Realn1e.Up1r1.2014.P.BDRip-AVC.mkv
Format : Matroska
Format version : Version 2
File size : 1.66 GiB
Duration : 1h 25mn
Overall bit rate : 2 783 Kbps
Encoded date : UTC 2015-01-06 06:15:55
Writing application : mkvmerge v5.8.0 ('No Sleep / Pillow') built on Sep 2 2012 15:37:04
Writing library : libebml v1.2.3 + libmatroska v1.3.0

Video
ID : 1
Format : AVC
Format/Info : Advanced Video Codec
Format profile : Main@L4.1
Format settings, CABAC : Yes
Format settings, ReFrames : 8 frames
Muxing mode : Header stripping
Codec ID : V_MPEG4/ISO/AVC
Duration : 1h 25mn
Bit rate : 2 024 Kbps
Width : 1 024 pixels
Height : 544 pixels
Display aspect ratio : 1.882
Frame rate mode : Constant
Frame rate : 24.000 fps
Color space : YUV
Chroma subsampling : 4:2:0
Bit depth : 8 bits
Scan type : Progressive
Bits/(Pixel*Frame) : 0.151
Stream size : 1.21 GiB (73%)
Language : English
Default : Yes
Forced : No

Audio #1
ID : 2
Format : AC-3
Format/Info : Audio Coding 3
Mode extension : CM (complete main)
Format settings, Endianness : Big
Muxing mode : Header stripping
Codec ID : A_AC3
Duration : 1h 25mn
Bit rate mode : Constant
Bit rate : 192 Kbps
Channel(s) : 2 channels
Channel positions : Front: L R
Sampling rate : 48.0 KHz
Bit depth : 16 bits
Compression mode : Lossy
Stream size : 117 MiB (7%)
Language : Russian
Default : Yes
Forced : No

Audio #2
ID : 3
Format : AC-3
Format/Info : Audio Coding 3
Mode extension : CM (complete main)
Format settings, Endianness : Big
Muxing mode : Header stripping
Codec ID : A_AC3
Duration : 1h 25mn
Bit rate mode : Constant
Bit rate : 512 Kbps
Channel(s) : 6 channels
Channel positions : Front: L C R, Side: L R, LFE
Sampling rate : 48.0 KHz
Bit depth : 16 bits
Compression mode : Lossy
Stream size : 313 MiB (18%)
Language : English
Default : No
Forced : No



Релиз от: pic
pic


Информация
Информация Скриншоты Пиры Скачавшие Список файлов
Залил Оценка Просмотров Скачан Файлов
АРХАНГЕЛ 0 417451

Теги
ужасы, комедия

Похожие раздачи

Реальные упыри / Чем мы занимаемся в тени / What We Do in the Shadows (2014) BDRip 1080p | Лицензия 6.79 GB

Реальные упыри / Чем мы занимаемся в тени / What We Do in the Shadows (2014) BDRip 720p | Лицензия 4.60 GB

Реальные упыри / What We Do in the Shadows (2014) HDRip | Лицензия 1.37 GB

Больше похожих раздач →

Список комментариев
Комментарии отсутствуют

Добавить комментарий
Внимание
Гости не могут оставлять комментарии, авторизуйтесь.

Панель навигации

ПОПУЛЯРНЫЕ РАЗДАЧИ
скачать торрент Пассажиры (2016) TSскачать торрент Доктор Стрэндж (2016) TS
скачать торрент Отряд самоубийц (2016) BDRip 1080p | Расширeнная версия | iTunesскачать торрент Плохой Санта 2 (2016) WEB-DLRip | iTunes
скачать торрент Первый мститель: Противостояние (2016) BDRip | IMAX Edition | iTunesскачать торрент Джейсон Борн (2016) HDTV 1080p | Чистый звук
скачать торрент Любовь не по размеру (2016) BDRip | Лицензияскачать торрент Глубоководный горизонт (2016) HDRip | iTunes
скачать торрент Волки и овцы: бе-е-е-зумное превращение (2016) WEB-DLRip | Лицензияскачать торрент Голограмма для короля (2016) HDRip | Лицензия

Будь с нами!


Наши друзья 



Информация, расположенная на данном сервере, предназначена исключительно для частного использования и не может быть загружена/перенесена на другой компьютер. Ни владелец сайта, ни хостинг-провайдер, ни любые другие физические или юридические лица не могут нести никакой отвественностиза любое использование материалов данного сайта.

© 2012-2017 TRACK.KG.