Загрузить Adobe Flash Player
Как тут качать? :: Как встать на раздачу?

Скачать / Download torrent  
Хэш: 8a5c9afafd7754e6aa5cf80c57269e2b5d0c20f7
Добавлен: 5 января 2015 в 02:13:52
Категория: Фильмы » Фильмы HD / BD
Размер: 468.86 MB
Проверил: АРХАНГЕЛ 5 января 2015 в 02:13:52

Раздают: 1189 Качают: 203

Человеческая революция / Human Revolution (2014) WEB-DL 720p | P2

pic

Название: Человеческая революция
Оригинальное название: Human Revolution

Год выхода: 2014
Страна: США / Dcode Films
Жанр: короткометражка, фантастика, боевик
Перевод: Русский: Професиональный (двухголосый) – Петр Гланц, Инна Королёва / Украинский: Дубляж – PlayUA


Режиссер: Мо Шариф
В ролях: Шариф, Лианнет Боррего, Энтони Короне, Шайна Николь Э’Орио, Хуан С. Бофилл, Уолтер Гарсиа, Шон Хэмлин, Кевин Хьюмс

О фильме: Группа энтузиастов под предводительством Мо Шарифа представила на суд общественности короткометражный фильм по мотивам Deus Ex: Human Revolution собственного производства. Интересен он в первую очередь тем, что по степени исполнения вплотную приблизился к профессиональным работам — тут вам и достоверные CGI-сцены, и цепкая режиссура, и весьма недурственная игра актеров.
Несмотря на то, что фильм основан на вселенной одноименной игры, его сюжет с событиями Human Revolution связан довольно слабо. Акцент делается на отношениях Адама Дженсена, начальника службы безопасности Sarif Industries, и его бывшей подружки Меган Рид, которая возглавляла отдел по разработке кибернетических протезов в той же корпорации. Рид похищают иллюминаты, чтобы под страхом смерти заставить ее активировать какой-то таинственный девайс. Своим нежеланием сотрудничать она выигрывает время для Дженсена, который, будучи уже киборгом, спешит к ней на выручку.

pic pic pic pic

Качество: WEB-DL 720p
Формат: MKV
Продолжительность: 00:12:17
Видео: MPEG-4 AVC, 1280x720, 4713 Kbps
Звук: Русский / Украинский: AC3, 2 ch, 256 Kbps

General
Unique ID : 183882100987137483569854049233791914345 (0x8A56678A37EE141BA544854587009169)
Complete name : H:\HUMAN REVOLUTION - 2014 - WEB-DLRip 720p.mkv
Format : Matroska
Format version : Version 2
File size : 469 MiB
Duration : 12mn 17s
Overall bit rate : 5 331 Kbps
Encoded date : UTC 2015-01-04 19:23:50
Writing application : mkvmerge v5.8.0 ('No Sleep / Pillow') built on Sep 2 2012 15:37:04
Writing library : libebml v1.2.3 + libmatroska v1.3.0

Video
ID : 1
Format : AVC
Format/Info : Advanced Video Codec
Format profile : Main@L4.1
Format settings, CABAC : Yes
Format settings, ReFrames : 8 frames
Muxing mode : Header stripping
Codec ID : V_MPEG4/ISO/AVC
Duration : 12mn 17s
Bit rate : 4 713 Kbps
Width : 1 280 pixels
Height : 720 pixels
Display aspect ratio : 16:9
Frame rate mode : Constant
Frame rate : 24.000 fps
Color space : YUV
Chroma subsampling : 4:2:0
Bit depth : 8 bits
Scan type : Progressive
Bits/(Pixel*Frame) : 0.213
Stream size : 414 MiB (88%)
Language : English
Default : Yes
Forced : No

Audio #1
ID : 2
Format : AC-3
Format/Info : Audio Coding 3
Mode extension : CM (complete main)
Format settings, Endianness : Big
Muxing mode : Header stripping
Codec ID : A_AC3
Duration : 12mn 17s
Bit rate mode : Constant
Bit rate : 256 Kbps
Channel(s) : 2 channels
Channel positions : Front: L R
Sampling rate : 48.0 KHz
Bit depth : 16 bits
Compression mode : Lossy
Stream size : 22.5 MiB (5%)
Language : Russian
Default : Yes
Forced : No

Audio #2
ID : 3
Format : AC-3
Format/Info : Audio Coding 3
Mode extension : CM (complete main)
Format settings, Endianness : Big
Muxing mode : Header stripping
Codec ID : A_AC3
Duration : 12mn 17s
Bit rate mode : Constant
Bit rate : 256 Kbps
Channel(s) : 2 channels
Channel positions : Front: L R
Sampling rate : 48.0 KHz
Bit depth : 16 bits
Compression mode : Lossy
Stream size : 22.5 MiB (5%)
Language : Ukrainian
Default : No
Forced : No



Релиз от: pic
pic


Информация
Информация Скриншоты Пиры Скачавшие Список файлов
Залил Оценка Просмотров Скачан Файлов
АРХАНГЕЛ 0 355541

Теги
короткометражка, фантастика, боевик

Похожие раздачи

Человеческая революция / Human Revolution (2014) WEB-DLRip | P2 229.63 MB

Больше похожих раздач →

Список комментариев
Комментарии отсутствуют

Добавить комментарий
Внимание
Гости не могут оставлять комментарии, авторизуйтесь.

Панель навигации

ПОПУЛЯРНЫЕ РАЗДАЧИ
скачать торрент Ледокол (2016) WEB-DLRip | iTunesскачать торрент Доктор Стрэндж (2016) TS
скачать торрент Ледокол (2016) WEB-DL 1080p | iTunesскачать торрент Дуэлянт (2016) CAMRip
скачать торрент Отряд самоубийц (2016) BDRip 1080p | Расширeнная версия | iTunesскачать торрент Джейсон Борн (2016) HDTV 720p | Чистый звук
скачать торрент Первый мститель: Противостояние (2016) BDRip | IMAX Edition | iTunesскачать торрент Тарзан. Легенда (2016) HDRip | iTunes
скачать торрент Dark Souls 3: Deluxe Edition (2016) PC | RePack от xatabскачать торрент Люди Икс: Апокалипсис / X-Men: Apocalypse (2016) BDRip 720p | Лицензия

Будь с нами!


Наши друзья 



Информация, расположенная на данном сервере, предназначена исключительно для частного использования и не может быть загружена/перенесена на другой компьютер. Ни владелец сайта, ни хостинг-провайдер, ни любые другие физические или юридические лица не могут нести никакой отвественностиза любое использование материалов данного сайта.

© 2012-2016 TRACK.KG.