Загрузить Adobe Flash Player
Как тут качать? :: Как встать на раздачу?

Скачать / Download torrent  
Хэш: 4ee41d60fceaa241f4abe85657ccd36de8c26469
Добавлен: 27 декабря 2014 в 13:02:47
Категория: Мультфильмы
Размер: 1.81 GB
Проверил: АРХАНГЕЛ 27 декабря 2014 в 13:02:47

Раздают: 404 Качают: 87

Пчёлка Майя / Maya the Bee Movie (2014) BDRip-AVC | Чистый звук

pic

«Невероятно сладкая история»

Название: Пчёлка Майя
Оригинальное название: Maya the Bee Movie

Год выхода: 2014
Страна: Австралия, Германия / Buzz Studios, Fish Blowing Bubbles, Flying Bark Productions
Жанр: Мультфильм, фэнтези, приключения
Перевод: Дублированный – Чистый звук- официальный
Оригинальная аудиодорожка: Испанский

Режиссер: Алекс Стадерманн
Роли озвучивали: Нина Шаттон, Коди Смит-МакФи, Ноа Тейлор, Джеки Уивер, Ричард Роксбург, Мириам Маргулис, Джастин Кларк, Энди МакФи, Косма Шива Хаген, Коко Джек Гиллис

О фильме: Легендарная пчелка доросла до большого экрана. В улье на свет появилась пчелка, которая выделяется из общей массы: она озорная, любопытная, не может держать рот на замке и постоянно рвется на поиски приключений. И вот, её любознательность довела до того, что она была изгнана из улья. Поэтому Майя пытается найти свое место среди других насекомых...

pic pic pic pic

Качество: BDRip-AVC
Формат: MKV
Продолжительность: 01:28:10
Видео: AVC, 1024x552, 2054 Kbps
Звук: Русский: AC-3, 2 ch, 384 Kbps / Испанский: AC-3, 6 ch, 448 Kbps
Субтитры: Испанские
Дополнительно: Сохранены оригинальные чаптеры как на Blu-Ray


Мультфильм создан по мотивам повести Вальдемара Бонсельса «Приключения пчёлки Майи» (Die Biene Maja und ihre Abenteuer, 1912).

General
Unique ID : 254180995880064477028888449983549694025 (0xBF397AA7FFB2567DBF91C508253E6049)
Complete name : H:\ Maya the Bee Movie.2014.D.BDRip.1080p (1).mkv
Format : Matroska
Format version : Version 2
File size : 1.81 GiB
Duration : 1h 28mn
Overall bit rate : 2 945 Kbps
Movie name : Release Group CINEMANIA
Encoded date : UTC 2014-12-27 05:40:21
Writing application : mkvmerge v5.8.0 ('No Sleep / Pillow') built on Sep 2 2012 15:37:04
Writing library : libebml v1.2.3 + libmatroska v1.3.0

Video
ID : 1
Format : AVC
Format/Info : Advanced Video Codec
Format profile : Main@L4.1
Format settings, CABAC : Yes
Format settings, ReFrames : 6 frames
Muxing mode : Header stripping
Codec ID : V_MPEG4/ISO/AVC
Duration : 1h 28mn
Bit rate : 2 054 Kbps
Width : 1 024 pixels
Height : 552 pixels
Display aspect ratio : 1.85:1
Frame rate mode : Constant
Frame rate : 23.976 fps
Color space : YUV
Chroma subsampling : 4:2:0
Bit depth : 8 bits
Scan type : Progressive
Bits/(Pixel*Frame) : 0.152
Stream size : 1.26 GiB (70%)
Language : English
Default : Yes
Forced : No

Audio #1
ID : 2
Format : AC-3
Format/Info : Audio Coding 3
Mode extension : CM (complete main)
Format settings, Endianness : Big
Muxing mode : Header stripping
Codec ID : A_AC3
Duration : 1h 28mn
Bit rate mode : Constant
Bit rate : 384 Kbps
Channel(s) : 2 channels
Channel positions : Front: L R
Sampling rate : 48.0 KHz
Bit depth : 16 bits
Compression mode : Lossy
Stream size : 242 MiB (13%)
Language : Russian
Default : Yes
Forced : No

Audio #2
ID : 3
Format : AC-3
Format/Info : Audio Coding 3
Mode extension : CM (complete main)
Format settings, Endianness : Big
Muxing mode : Header stripping
Codec ID : A_AC3
Duration : 1h 28mn
Bit rate mode : Constant
Bit rate : 448 Kbps
Channel(s) : 6 channels
Channel positions : Front: L C R, Side: L R, LFE
Sampling rate : 48.0 KHz
Bit depth : 16 bits
Compression mode : Lossy
Stream size : 283 MiB (15%)
Language : Spanish
Default : No
Forced : No

Text
ID : 4
Format : PGS
Muxing mode : zlib
Codec ID : S_HDMV/PGS
Codec ID/Info : The same subtitle format used on BDs/HD-DVDs
Language : Spanish
Default : No
Forced : No

Menu
00:00:00.000 : en:(01)00:00:00:000
00:00:26.317 : en:(02)00:00:26:317
00:08:05.985 : en:(03)00:08:05:985
00:13:21.258 : en:(04)00:13:21:258
00:15:45.861 : en:(05)00:15:45:861
00:23:21.483 : en:(06)00:23:21:483
00:27:33.943 : en:(07)00:27:33:943
00:36:37.528 : en:(08)00:36:37:528
00:39:46.675 : en:(09)00:39:46:675
00:49:49.319 : en:(10)00:49:49:319
01:00:39.761 : en:(11)01:00:39:761
01:09:23.617 : en:(12)01:09:23:617
01:16:40.596 : en:(13)01:16:40:596



Релиз от: pic
pic


Информация
Информация Скриншоты Пиры Скачавшие Список файлов
Залил Оценка Просмотров Скачан Файлов
АРХАНГЕЛ -3 601651

Теги
мультфильм, фэнтези, приключения

Похожие раздачи

Поиск не дал результатов.Больше похожих раздач →

Список комментариев
Комментарии отсутствуют

Добавить комментарий
Внимание
Гости не могут оставлять комментарии, авторизуйтесь.

Панель навигации

ПОПУЛЯРНЫЕ РАЗДАЧИ
скачать торрент Ледокол (2016) WEB-DLRip | iTunesскачать торрент Доктор Стрэндж (2016) TS
скачать торрент Ледокол (2016) WEB-DL 1080p | iTunesскачать торрент Дуэлянт (2016) CAMRip
скачать торрент Отряд самоубийц (2016) BDRip 1080p | Расширeнная версия | iTunesскачать торрент Джейсон Борн (2016) HDTV 720p | Чистый звук
скачать торрент Первый мститель: Противостояние (2016) BDRip | IMAX Edition | iTunesскачать торрент Тарзан. Легенда (2016) HDRip | iTunes
скачать торрент Dark Souls 3: Deluxe Edition (2016) PC | RePack от xatabскачать торрент Люди Икс: Апокалипсис / X-Men: Apocalypse (2016) BDRip 720p | Лицензия

Будь с нами!


Наши друзья 



Информация, расположенная на данном сервере, предназначена исключительно для частного использования и не может быть загружена/перенесена на другой компьютер. Ни владелец сайта, ни хостинг-провайдер, ни любые другие физические или юридические лица не могут нести никакой отвественностиза любое использование материалов данного сайта.

© 2012-2016 TRACK.KG.