Загрузить Adobe Flash Player
Как тут качать? :: Как встать на раздачу?

Скачать / Download torrent  
Хэш: b52315b09df3032ebd5b06795bfee285c3a74e66
Добавлен: 27 декабря 2014 в 09:18:11
Категория: Фильмы » Зарубежное кино » Триллеры / Криминал
Размер: 2.10 GB
Проверил: АРХАНГЕЛ 27 декабря 2014 в 09:18:11

Раздают: 264 Качают: 120

Занесло / Rеdirected (2014) WEB-DLRip-AVC | L, L1

pic

Название: Занесло
Оригинальное название: Rеdirected

Год выхода: 2014
Страна: Литва, Великобритания / Kinokultas, Wellington Films
Жанр: боевик, триллер, комедия, криминал
Перевод: Любительский (многоголосый) - студия "Paradox" / Любительскbq (одноголосый) - RAIM
Оригинальная аудиодорожка: English

Режиссер: Эмилис Веливис
В ролях: Винни Джонс, Скот Уильямс, Гил Дарнелл, Оливер Джексон, Энтони Страхан, Андрюс Жюраускас, Витаутас Шапранаускас, Артур Смольянинов, Вита Сяусюнайте, Моника

О фильме: Компания хитроумных гангстеров совершила дерзкое нападение на крупное прибыльное казино. Собрав всю выручку, коей оказалось достаточно, чтобы год другой прожить безбедно, они рванули из страны. Бесстрашные дерзкие друзья Джонни, Бен, Майкл и Тим решили, что наиболее комфортной для них в данный момент станет страна Малайзия. Билеты в карманах, посадка прошла успешно, самолет взлетел без происшествий. Казалось бы, что может помешать грабителям добраться до цели? Конечно же, извержение пробудившегося вулкана Эйяфьядлайёкюдля. Пилот вынужден экстренно совершить посадку в близлежащем аэропорте – в Латвии. Пока пассажиры пребывают в панике, владелец казино неотступно следует за обидчиками.

pic pic pic pic

Качество: WEB-DLRip-AVC
Формат: MKV
Продолжительность: 01:39:03
Видео: AVC, 1024x424, 2018 Kbps
Звук: Russian [студия "Paradox"]: AC3, 192 kb/s (2 ch) / [RAIM]: AC3, 384 kb/s (6 ch) / English: AC3, 384 kb/s (6 ch)
Субтитры: Russian (Keith), English
Дополнительно: Сохранены оригинальные чаптеры как на Blu-Ray
pic ВНИМАНИЕ!!! В фильме присутствует ненормативная лексика.


Обычное кино из какого-то далекого обычного в необычное время — иначе и не сказать. Шутки и юмор, антураж и вид самих героев из практически забытых 90-ых. Хотя, судя по колебаниям курса валют, мы скоро можем вернуться к тем временам. Братки в олимпийках, беспредел практически на каждом шагу, оборотни в погонах, грабежи и разбой, криминальные разборки…

Импонирует что в этом кино? Кроме наплыва воспоминаний о лучших фильмах Гая Ричи. Живое действо посреди деревенской глубинки… Обилие неожиданных поворотов, постоянный экшен и местами весьма забористый юмор.

Особенно это всё выделяется на фоне более дорогих «коллег» фильма, которые, иной раз, просто тоску наводят.

General
Unique ID : 233421134167914784643349472013335612469 (0xAF9B4673289E359C8A46FBECB1FB4C35)
Complete name : H:\ Redirected.2014.WEB-DLRip-AVC.mkv
Format : Matroska
Format version : Version 2
File size : 2.10 GiB
Duration : 1h 39mn
Overall bit rate : 3 039 Kbps
Movie name : Release Group CINEMANIA
Encoded date : UTC 2014-12-26 19:39:26
Writing application : mkvmerge v5.8.0 ('No Sleep / Pillow') built on Sep 2 2012 15:37:04
Writing library : libebml v1.2.3 + libmatroska v1.3.0

Video
ID : 1
Format : AVC
Format/Info : Advanced Video Codec
Format profile : Main@L4.1
Format settings, CABAC : Yes
Format settings, ReFrames : 6 frames
Muxing mode : Header stripping
Codec ID : V_MPEG4/ISO/AVC
Duration : 1h 39mn
Bit rate : 2 018 Kbps
Width : 1 024 pixels
Height : 424 pixels
Display aspect ratio : 2.40:1
Frame rate mode : Constant
Frame rate : 23.976 fps
Color space : YUV
Chroma subsampling : 4:2:0
Bit depth : 8 bits
Scan type : Progressive
Bits/(Pixel*Frame) : 0.194
Stream size : 1.40 GiB (66%)
Language : English
Default : Yes
Forced : No

Audio #1
ID : 2
Format : AC-3
Format/Info : Audio Coding 3
Mode extension : CM (complete main)
Format settings, Endianness : Big
Muxing mode : Header stripping
Codec ID : A_AC3
Duration : 1h 39mn
Bit rate mode : Constant
Bit rate : 192 Kbps
Channel(s) : 2 channels
Channel positions : Front: L R
Sampling rate : 48.0 KHz
Bit depth : 16 bits
Compression mode : Lossy
Stream size : 136 MiB (6%)
Title : Paradox
Language : Russian
Default : Yes
Forced : Yes

Audio #2
ID : 3
Format : AC-3
Format/Info : Audio Coding 3
Mode extension : CM (complete main)
Format settings, Endianness : Big
Muxing mode : Header stripping
Codec ID : A_AC3
Duration : 1h 39mn
Bit rate mode : Constant
Bit rate : 384 Kbps
Channel(s) : 6 channels
Channel positions : Front: L C R, Side: L R, LFE
Sampling rate : 48.0 KHz
Bit depth : 16 bits
Compression mode : Lossy
Stream size : 272 MiB (13%)
Title : RAIM
Language : Russian
Default : No
Forced : No

Audio #3
ID : 4
Format : AC-3
Format/Info : Audio Coding 3
Mode extension : CM (complete main)
Format settings, Endianness : Big
Muxing mode : Header stripping
Codec ID : A_AC3
Duration : 1h 39mn
Bit rate mode : Constant
Bit rate : 384 Kbps
Channel(s) : 6 channels
Channel positions : Front: L C R, Side: L R, LFE
Sampling rate : 48.0 KHz
Bit depth : 16 bits
Compression mode : Lossy
Stream size : 272 MiB (13%)
Language : English
Default : No
Forced : No

Text #1
ID : 5
Format : UTF-8
Codec ID : S_TEXT/UTF8
Codec ID/Info : UTF-8 Plain Text
Language : Russian
Default : Yes
Forced : Yes

Text #2
ID : 6
Format : UTF-8
Codec ID : S_TEXT/UTF8
Codec ID/Info : UTF-8 Plain Text
Title : Keith
Language : Russian
Default : No
Forced : No

Text #3
ID : 7
Format : UTF-8
Codec ID : S_TEXT/UTF8
Codec ID/Info : UTF-8 Plain Text
Language : English
Default : No
Forced : No

Menu
00:00:00.000 : en:1
00:08:22.000 : en:2
00:20:00.000 : en:3
00:28:31.000 : en:4
00:35:29.000 : en:5
00:42:18.000 : en:6
00:51:32.000 : en:7
00:59:33.000 : en:8
01:12:11.000 : en:9
01:19:25.000 : en:10
01:32:16.000 : en:11



Релиз от: pic
pic


Информация
Информация Скриншоты Пиры Скачавшие Список файлов
Залил Оценка Просмотров Скачан Файлов
АРХАНГЕЛ -2 626631

Теги
боевик, триллер, комедия, криминал

Похожие раздачи

Занесло / Redirected (2014) WEB-DL 720p 3.09 GB

Занесло / Redirected (2014) WEBRip 946.93 MB

Больше похожих раздач →

Список комментариев
:: Не в сети 3ima :: Пользователь :: 29 декабря 2014 в 10:45:38
0
минус 3 :-P
Количество страниц: 1 | На страничку (строк): 20 | Всего данных: 1

Добавить комментарий
Внимание
Гости не могут оставлять комментарии, авторизуйтесь.

Панель навигации

ПОПУЛЯРНЫЕ РАЗДАЧИ
скачать торрент Ледокол (2016) WEB-DLRip | iTunesскачать торрент Ледокол (2016) WEB-DL 1080p | iTunes
скачать торрент Дуэлянт (2016) CAMRipскачать торрент Отряд самоубийц (2016) BDRip 1080p | Расширeнная версия | iTunes
скачать торрент Джейсон Борн (2016) HDTV 720p | Чистый звукскачать торрент Первый мститель: Противостояние (2016) BDRip | IMAX Edition | iTunes
скачать торрент Тарзан. Легенда (2016) HDRip | iTunesскачать торрент Dark Souls 3: Deluxe Edition (2016) PC | RePack от xatab
скачать торрент Люди Икс: Апокалипсис / X-Men: Apocalypse (2016) BDRip 720p | Лицензияскачать торрент Полтора шпиона (2016) BDRip 1080p | Лицензия

Будь с нами!


Наши друзья 



Информация, расположенная на данном сервере, предназначена исключительно для частного использования и не может быть загружена/перенесена на другой компьютер. Ни владелец сайта, ни хостинг-провайдер, ни любые другие физические или юридические лица не могут нести никакой отвественностиза любое использование материалов данного сайта.

© 2012-2016 TRACK.KG.