Загрузить Adobe Flash Player
Как тут качать? :: Как встать на раздачу?

Скачать / Download torrent  
Хэш: d188718fe22a2ca7a8e13eb3eb73de11b2a743d6
Добавлен: 23 декабря 2014 в 08:58:30
Категория: Фильмы » Зарубежное кино » Ужасы
Размер: 1.49 GB
Проверил: АРХАНГЕЛ 23 декабря 2014 в 08:58:30

Раздают: 66 Качают: 11

Синий демон / Ao oni / Blue Demon (2014) BDRip-AVC | L

pic

Название: Синий демон
Оригинальное название: Ao oni / Blue Demon

Год выхода: 2014
Страна: Япония / AMG Entertainment
Жанр: ужасы
Перевод: Любительский (многоголосый) - DeadSno, den904, Izanami – (перевод на русский язык - akira9)
Оригинальная аудиодорожка: Japanese

Режиссер: Дайсуке Кобаяши
В ролях: Сеика Фурухата, Анна Ирияма, Шо Джинаи, Рико Озеки, Масая, Кента Суга

О фильме: Шесть школьников оказываются запертыми в зловещем «Доме с призраками» на окраине города. Ходят слухи, что в нем обитает страшный монстр, пожирающий людей. В то время, как большая синяя тень все ближе приближается к подросткам, они все отчаяннее пытаются найти выход и спасти свои жизни…

pic pic pic pic

Качество: BDRip-AVC
Формат: MKV
Продолжительность: 01:09:09
Видео: AVC, 1024x552, 2009 Kbps
Звук: Russian / Japanese: AC3, 512 kb/s (6 ch)

General
Unique ID : 213517984166134634968813227964509253264 (0xA0A2116452FEE94E87C179A96A5CEE90)
Complete name : H:\ Blue.Demon.2014.BDRip-AVC.mkv
Format : Matroska
Format version : Version 2
File size : 1.49 GiB
Duration : 1h 9mn
Overall bit rate : 3 095 Kbps
Encoded date : UTC 2014-12-22 19:25:42
Writing application : mkvmerge v5.8.0 ('No Sleep / Pillow') built on Sep 2 2012 15:37:04
Writing library : libebml v1.2.3 + libmatroska v1.3.0

Video
ID : 1
Format : AVC
Format/Info : Advanced Video Codec
Format profile : Main@L4.1
Format settings, CABAC : Yes
Format settings, ReFrames : 6 frames
Muxing mode : Header stripping
Codec ID : V_MPEG4/ISO/AVC
Duration : 1h 9mn
Bit rate : 2 009 Kbps
Width : 1 024 pixels
Height : 552 pixels
Display aspect ratio : 1.85:1
Frame rate mode : Constant
Frame rate : 23.976 fps
Color space : YUV
Chroma subsampling : 4:2:0
Bit depth : 8 bits
Scan type : Progressive
Bits/(Pixel*Frame) : 0.148
Stream size : 994 MiB (65%)
Language : English
Default : Yes
Forced : No

Audio #1
ID : 2
Format : AC-3
Format/Info : Audio Coding 3
Mode extension : CM (complete main)
Format settings, Endianness : Big
Muxing mode : Header stripping
Codec ID : A_AC3
Duration : 1h 9mn
Bit rate mode : Constant
Bit rate : 512 Kbps
Channel(s) : 6 channels
Channel positions : Front: L C R, Side: L R, LFE
Sampling rate : 48.0 KHz
Bit depth : 16 bits
Compression mode : Lossy
Stream size : 253 MiB (17%)
Language : Russian
Default : Yes
Forced : No

Audio #2
ID : 3
Format : AC-3
Format/Info : Audio Coding 3
Mode extension : CM (complete main)
Format settings, Endianness : Big
Muxing mode : Header stripping
Codec ID : A_AC3
Duration : 1h 9mn
Bit rate mode : Constant
Bit rate : 512 Kbps
Channel(s) : 6 channels
Channel positions : Front: L C R, Side: L R, LFE
Sampling rate : 48.0 KHz
Bit depth : 16 bits
Compression mode : Lossy
Stream size : 253 MiB (17%)
Language : Japanese
Default : No
Forced : No



Релиз от: pic
pic


Информация
Информация Скриншоты Пиры Скачавшие Список файлов
Залил Оценка Просмотров Скачан Файлов
АРХАНГЕЛ -2 414331

Теги
ужасы

Похожие раздачи

Синий демон / Ao oni (2014) HDRip 1.37 GB

Синий демон / Ao oni (2014) BDRip 720p 3.76 GB

Синий демон / Ao oni (2014) BDRip 1080p 7.85 GB

Больше похожих раздач →

Список комментариев
Комментарии отсутствуют

Добавить комментарий
Внимание
Гости не могут оставлять комментарии, авторизуйтесь.

Панель навигации

ПОПУЛЯРНЫЕ РАЗДАЧИ
скачать торрент Ледокол (2016) WEB-DLRip | iTunesскачать торрент Доктор Стрэндж (2016) TS
скачать торрент Ледокол (2016) WEB-DL 1080p | iTunesскачать торрент Дуэлянт (2016) CAMRip
скачать торрент Отряд самоубийц (2016) BDRip 1080p | Расширeнная версия | iTunesскачать торрент Джейсон Борн (2016) HDTV 720p | Чистый звук
скачать торрент Первый мститель: Противостояние (2016) BDRip | IMAX Edition | iTunesскачать торрент Тарзан. Легенда (2016) HDRip | iTunes
скачать торрент Полтора шпиона (2016) BDRip 1080p | Лицензияскачать торрент Джейсон Борн (2016) HDTV 1080p | Чистый звук

Будь с нами!


Наши друзья 



Информация, расположенная на данном сервере, предназначена исключительно для частного использования и не может быть загружена/перенесена на другой компьютер. Ни владелец сайта, ни хостинг-провайдер, ни любые другие физические или юридические лица не могут нести никакой отвественностиза любое использование материалов данного сайта.

© 2012-2016 TRACK.KG.