Загрузить Adobe Flash Player
Как тут качать? :: Как встать на раздачу?

Скачать / Download torrent  
Хэш: eda20d5eb79ebbdce588334c4455cccb706f6afb
Добавлен: 11 декабря 2014 в 22:30:19
Категория: Фильмы » Зарубежное кино » Комедии / Пародийные
Размер: 1.78 GB
Проверил: АРХАНГЕЛ 11 декабря 2014 в 22:30:19

Раздают: 152 Качают: 36

Это, блин, рождественское чудо / A Merry Friggin' Christmas (2014) BDRip-AVC | L1

pic

«Потратьте это с теми, кого Вы ненавидите»

Название: Это, блин, рождественское чудо
Оригинальное название: A Merry Friggin' Christmas

Год выхода: 2014
Страна: США / Sycamore Pictures
Жанр: Комедия
Перевод: Любительский одноголосый – R.A.I.M
Оригинальная аудиодорожка: Aнглийский

Режиссер: Тристрам Шапиро
В ролях: Джоэл МакХэйл, Лорен Грэм, Кларк Дьюк, Оливер Плэтт, Венди МакЛендон-Кови, Тим Хайдекер, Кэндис Берген, Робин Уильямс, Мэтт Джонс, Джеффри Тэмбор

О фильме: Бойд Митчлер и его жена Луанн решают провести Рождество с отцом Бойда Митчем и его, мягко выражаясь, странноватым семейством. Сообразив, что он забыл дома все подарки, Бойд в компании брата и отца прыгает в машину и пытается совершить невозможное: съездить домой и вернуться обратно до рассвета.

pic pic pic pic pic

Качество: BDRip-AVC
Формат: MKV
Продолжительность: 01:21:43
Видео: AVC, 1024x576, 2036 Kbps
Звук: Русский (АС3, 6 ch, 384 Kbps) / Aнглийский (АС3, 6 ch, 640 Kbps)
Субтитры: Английские
Доп.информация: Сохранены оригинальные чаптеры как на Blu-ray.

General
Unique ID : 235201115725214002436558042978346495429 (0xB0F21650F5B2118ABB25F08D074E6DC5)
Complete name : H:\ A.Merry.Friggin.Christmas.2014.BDRip-AVC.mkv
Format : Matroska
Format version : Version 4 / Version 2
File size : 1.78 GiB
Duration : 1h 21mn
Overall bit rate : 3 122 Kbps
Movie name : Release Group CINEMANIA
Encoded date : UTC 2014-12-11 15:49:39
Writing application : mkvmerge v7.0.0 ('Where We Going') 64bit built on Jun 9 2014 15:16:27
Writing library : libebml v1.3.0 + libmatroska v1.4.1
DURATION : 01:19:54.687000000
NUMBER_OF_FRAMES : 1089
NUMBER_OF_BYTES : 46061
_STATISTICS_WRITING_APP : mkvmerge v7.0.0 ('Where We Going') 64bit built on Jun 9 2014 15:16:27
_STATISTICS_WRITING_DATE_UTC : 2014-12-11 15:49:39
_STATISTICS_TAGS : BPS DURATION NUMBER_OF_FRAMES NUMBER_OF_BYTES

Video
ID : 1
Format : AVC
Format/Info : Advanced Video Codec
Format profile : Main@L4.1
Format settings, CABAC : Yes
Format settings, ReFrames : 4 frames
Codec ID : V_MPEG4/ISO/AVC
Duration : 1h 21mn
Bit rate : 2 036 Kbps
Width : 1 024 pixels
Height : 576 pixels
Display aspect ratio : 16:9
Frame rate mode : Constant
Frame rate : 23.976 fps
Color space : YUV
Chroma subsampling : 4:2:0
Bit depth : 8 bits
Scan type : Progressive
Bits/(Pixel*Frame) : 0.144
Stream size : 1.16 GiB (65%)
Language : English
Default : Yes
Forced : No

Audio #1
ID : 2
Format : AC-3
Format/Info : Audio Coding 3
Mode extension : CM (complete main)
Format settings, Endianness : Big
Codec ID : A_AC3
Duration : 1h 21mn
Bit rate mode : Constant
Bit rate : 384 Kbps
Channel(s) : 6 channels
Channel positions : Front: L C R, Side: L R, LFE
Sampling rate : 48.0 KHz
Bit depth : 16 bits
Compression mode : Lossy
Stream size : 225 MiB (12%)
Default : Yes
Forced : No

Audio #2
ID : 3
Format : AC-3
Format/Info : Audio Coding 3
Mode extension : CM (complete main)
Format settings, Endianness : Big
Codec ID : A_AC3
Duration : 1h 21mn
Bit rate mode : Constant
Bit rate : 640 Kbps
Channel(s) : 6 channels
Channel positions : Front: L C R, Side: L R, LFE
Sampling rate : 48.0 KHz
Bit depth : 16 bits
Compression mode : Lossy
Stream size : 374 MiB (20%)
Default : No
Forced : No

Text
ID : 4
Format : UTF-8
Codec ID : S_TEXT/UTF8
Codec ID/Info : UTF-8 Plain Text
Language : English
Default : No
Forced : No

Menu
00:00:00.000 : en:00:00:00.000
00:04:14.171 : en:00:04:14.171
00:08:17.163 : en:00:08:17.163
00:12:52.814 : en:00:12:52.814
00:17:54.448 : en:00:17:54.448
00:22:45.864 : en:00:22:45.864
00:26:23.165 : en:00:26:23.165
00:33:51.363 : en:00:33:51.363
00:38:53.581 : en:00:38:53.581
00:43:15.927 : en:00:43:15.927
00:48:37.206 : en:00:48:37.206
00:52:31.357 : en:00:52:31.357
00:57:53.929 : en:00:57:53.929
01:03:03.738 : en:01:03:03.738
01:08:06.708 : en:01:08:06.708
01:13:34.619 : en:01:13:34.619


Релиз от: pic
pic


Информация
Информация Скриншоты Пиры Скачавшие Список файлов
Залил Оценка Просмотров Скачан Файлов
АРХАНГЕЛ 0 335361

Теги
комедия

Похожие раздачи

Это, блин, рождественское чудо / A Merry Friggin' Christmas (2014) BDRip 1080p | Чистый звук 8.97 GB

Человек-блин / Jian Bing Man (2015) WEBRip | L1 2.05 GB

Это, блин, рождественское чудо / A Merry Friggin' Christmas (2014) HDRip | L1 1.37 GB

Больше похожих раздач →

Список комментариев
Комментарии отсутствуют

Добавить комментарий
Внимание
Гости не могут оставлять комментарии, авторизуйтесь.

Панель навигации

ПОПУЛЯРНЫЕ РАЗДАЧИ
скачать торрент Ледокол (2016) WEB-DLRip | iTunesскачать торрент Доктор Стрэндж (2016) TS
скачать торрент Ледокол (2016) WEB-DL 1080p | iTunesскачать торрент Дуэлянт (2016) CAMRip
скачать торрент Отряд самоубийц (2016) BDRip 1080p | Расширeнная версия | iTunesскачать торрент Джейсон Борн (2016) HDTV 720p | Чистый звук
скачать торрент Первый мститель: Противостояние (2016) BDRip | IMAX Edition | iTunesскачать торрент Тарзан. Легенда (2016) HDRip | iTunes
скачать торрент Dark Souls 3: Deluxe Edition (2016) PC | RePack от xatabскачать торрент Люди Икс: Апокалипсис / X-Men: Apocalypse (2016) BDRip 720p | Лицензия

Будь с нами!


Наши друзья 



Информация, расположенная на данном сервере, предназначена исключительно для частного использования и не может быть загружена/перенесена на другой компьютер. Ни владелец сайта, ни хостинг-провайдер, ни любые другие физические или юридические лица не могут нести никакой отвественностиза любое использование материалов данного сайта.

© 2012-2016 TRACK.KG.