Загрузить Adobe Flash Player
Как тут качать? :: Как встать на раздачу?

Скачать / Download torrent  
Хэш: dc760333fa1f35292000adbc60c44446a74acdb4
Добавлен: 10 декабря 2014 в 20:31:47
Категория: Фильмы » Зарубежное кино » Комедии / Пародийные
Размер: 1.63 GB
Проверил: АРХАНГЕЛ 10 декабря 2014 в 20:31:47

Раздают: 459 Качают: 152

Секс на две ночи / Two Night Stand (2014) WEB-DLRip (AVC) | P

pic

Название: Секс на две ночи
Оригинальное название: Two Night Stand

Год выхода: 2014
Страна: США / Demarest Films, Flynn Picture Company
Жанр: Комедия, мелодрама
Перевод: Профессиональный многоголосый – официальное
Оригинальная аудиодорожка: Aнглийский

Режиссер: Макс Николс
В ролях: Анали Типтон, Майлз Теллер, Джессика Зор, Скотт Мескади, Берто Колон, Джош Салатин, Келлин Линдсэй, Майкл Шоуолтер, Ливэн Рамбин, Джои Лорен Эдамс

О фильме: Девушка застряла дома у парня на целый день из-за ужасного снежного шторма. Благодаря этому несчастному случаю молодые люди получают возможность познакомиться поближе.

pic pic pic pic pic

Качество: WEB-DLRip (AVC)
Формат: MKV
Продолжительность: 01:26:13
Видео: AVC, 1024x424, 2015 Kbps
Звук: Русский (AC3, 2 ch, 256 Кбит/с), английский (AC3, 6 ch, 384 Кбит/с)
Субтитры: Английские

General
Unique ID : 222961587881793972078491582292188860253 (0xA7BCD700BC320CCDB2B43FC0A8C20F5D)
Complete name : H:\ S3ks.Ha.dv3.n04i.2014.D.WEBDLRip-AVC.mkv
Format : Matroska
Format version : Version 4 / Version 2
File size : 1.63 GiB
Duration : 1h 26mn
Overall bit rate : 2 709 Kbps
Encoded date : UTC 2014-12-10 11:40:15
Writing application : mkvmerge v7.0.0 ('Where We Going') 64bit built on Jun 9 2014 15:16:27
Writing library : libebml v1.3.0 + libmatroska v1.4.1
DURATION : 01:21:18.539000000
NUMBER_OF_FRAMES : 1541
NUMBER_OF_BYTES : 46741
_STATISTICS_WRITING_APP : mkvmerge v7.0.0 ('Where We Going') 64bit built on Jun 9 2014 15:16:27
_STATISTICS_WRITING_DATE_UTC : 2014-12-10 11:40:15
_STATISTICS_TAGS : BPS DURATION NUMBER_OF_FRAMES NUMBER_OF_BYTES

Video
ID : 1
Format : AVC
Format/Info : Advanced Video Codec
Format profile : Main@L4.1
Format settings, CABAC : Yes
Format settings, ReFrames : 4 frames
Codec ID : V_MPEG4/ISO/AVC
Duration : 1h 26mn
Bit rate : 2 015 Kbps
Width : 1 024 pixels
Height : 424 pixels
Display aspect ratio : 2.40:1
Frame rate mode : Constant
Frame rate : 23.976 fps
Color space : YUV
Chroma subsampling : 4:2:0
Bit depth : 8 bits
Scan type : Progressive
Bits/(Pixel*Frame) : 0.194
Stream size : 1.21 GiB (74%)
Language : English
Default : Yes
Forced : No

Audio #1
ID : 2
Format : AC-3
Format/Info : Audio Coding 3
Mode extension : CM (complete main)
Format settings, Endianness : Big
Codec ID : A_AC3
Duration : 1h 26mn
Bit rate mode : Constant
Bit rate : 256 Kbps
Channel(s) : 2 channels
Channel positions : Front: L R
Sampling rate : 48.0 KHz
Bit depth : 16 bits
Compression mode : Lossy
Stream size : 158 MiB (9%)
Language : Russian
Default : Yes
Forced : No

Audio #2
ID : 3
Format : AC-3
Format/Info : Audio Coding 3
Mode extension : CM (complete main)
Format settings, Endianness : Big
Codec ID : A_AC3
Duration : 1h 26mn
Bit rate mode : Constant
Bit rate : 384 Kbps
Channel(s) : 6 channels
Channel positions : Front: L C R, Side: L R, LFE
Sampling rate : 48.0 KHz
Bit depth : 16 bits
Compression mode : Lossy
Stream size : 237 MiB (14%)
Default : No
Forced : No

Text
ID : 4
Format : UTF-8
Codec ID : S_TEXT/UTF8
Codec ID/Info : UTF-8 Plain Text
Language : English
Default : No
Forced : No

Menu
00:00:00.000 : en:Chapter 1
00:08:41.062 : en:Chapter 2
00:20:16.049 : en:Chapter 3
00:31:39.065 : en:Chapter 4
00:41:07.008 : en:Chapter 5
00:50:43.043 : en:Chapter 6
01:00:57.032 : en:Chapter 7
01:12:22.050 : en:Chapter 8
01:22:37.082 : en:Chapter 9


Релиз от: pic
pic


Информация
Информация Скриншоты Пиры Скачавшие Список файлов
Залил Оценка Просмотров Скачан Файлов
АРХАНГЕЛ 0 365381

Теги
комедия, мелодрама

Похожие раздачи

Секс, наркотики и рок-н-ролл (2 сезон: 1-10 серии из 10) (2016) WEB-DL 1080p | BaibaKo 10.34 GB

Секс, наркотики и рок-н-ролл (2 сезон: 1-10 серии из 10) (2016) WEB-DL 720p | Newstudio 8.21 GB

Секс, наркотики и рок-н-ролл (2 сезон: 1-10 серии из 10) (2016) WEB-DLRip | Newstudio 3.42 GB

Вуд и Сток: Секс, Орегано и Рок-н-Ролл / Wood & Stock: Sexo, Oregano e Rock'n'Roll (2006) DVDRip | L1 1.45 GB

Секс-игрушка / Игрушка / Norigae (2013) DVDRip | L2 | Pежиссерская версия 1.46 GB

Виртуальный Секс / Sex On [01-06 из 06] (2015) HDTVRip | P2 2.01 GB

Секс-пленка / sxtape (2013) HDRip | L 1.37 GB

Секс, наркотики и рок-н-ролл / Sex&Drugs&Rock&Roll (1 сезон: 1-10 серии из 10) (2015) WEB-DL 1080p | NewStudio 9.93 GB

Секс, наркотики и рок-н-ролл / Sex&Drugs&Rock&Roll (1 сезон: 1-10 серии из 10) (2015) WEB-DLRip | NewStudio 3.42 GB

Секс Сейчас / Sex Now (2014) HDTVRip 720p 858.68 MB

Больше похожих раздач →

Список комментариев
Комментарии отсутствуют

Добавить комментарий
Внимание
Гости не могут оставлять комментарии, авторизуйтесь.

Панель навигации

ПОПУЛЯРНЫЕ РАЗДАЧИ
скачать торрент Ледокол (2016) WEB-DLRip | iTunesскачать торрент Доктор Стрэндж (2016) TS
скачать торрент Ледокол (2016) WEB-DL 1080p | iTunesскачать торрент Дуэлянт (2016) CAMRip
скачать торрент Отряд самоубийц (2016) BDRip 1080p | Расширeнная версия | iTunesскачать торрент Джейсон Борн (2016) HDTV 720p | Чистый звук
скачать торрент Первый мститель: Противостояние (2016) BDRip | IMAX Edition | iTunesскачать торрент Тарзан. Легенда (2016) HDRip | iTunes
скачать торрент Полтора шпиона (2016) BDRip 1080p | Лицензияскачать торрент Джейсон Борн (2016) HDTV 1080p | Чистый звук

Будь с нами!


Наши друзья 



Информация, расположенная на данном сервере, предназначена исключительно для частного использования и не может быть загружена/перенесена на другой компьютер. Ни владелец сайта, ни хостинг-провайдер, ни любые другие физические или юридические лица не могут нести никакой отвественностиза любое использование материалов данного сайта.

© 2012-2016 TRACK.KG.