Загрузить Adobe Flash Player
Как тут качать? :: Как встать на раздачу?

Скачать / Download torrent  
Хэш: 57ab174196c46d83b3f06dd48f9355eb0f3acf3c
Добавлен: 1 ноября 2014 в 05:20:18
Категория: Мультфильмы
Размер: 2.07 GB
Проверил: АРХАНГЕЛ 1 ноября 2014 в 05:20:18

Раздают: 97 Качают: 18

Бэтмен: Нападение на Аркхэм / Batman: Assault on Arkham (2014) HDRip-AVC | L

pic

«Будьте готовы поддерживать плохих парней»

Название: Бэтмен: Нападение на Аркхэм
Оригинальное название: Batman: Assault on Arkham

Год выхода: 2014
Страна: США / DC Entertainment, Warner Bros. Animation, Warner Premiere
Жанр: мультфильм, боевик, триллер, криминал
Перевод: Любительский (многоголосый закадровый) – Saint Sound / Любительский (многоголосый закадровый) – Kapets's Studios / Любительский (многоголосый закадровый) – ZM-SHOW
Оригинальная аудиодорожка: English

Режиссер: Джей Олива, Этан Сполдинг
В ролях: Кевин Конрой, Нил МакДонаф, Хинден Уолш, Мэттью Грей Гублер, Трой Бэйкер, Эрик Бауза, Крис Кокс, Джон Ди Маджио, Грег Эллис, Джанкарло Эспозито

О фильме: Секретная правительственная организация формирует спец группу «Суицидальный отряд», состоящую из наемников и убийц, чтобы проникнуть в психиатрическую лечебницу Аркхам и добыть похищенную, засекреченную информацию, из рук заключенного - Эдварда Нигмы «Загадочника».

pic pic pic pic pic

Качество: HDRip-AVC
Формат: MKV
Продолжительность: 01:15:56
Видео: AVC, 1024 x 576, ~2 031 Kbps
Звук: Russian (Saint Sound / Kapets's Studios / ZM-SHOW) / English: AC-3, 2 ch, 448 Kbps
Субтитры: Russian, Russian (Dakota Family), English
Дополнительно: Сохранены оригинальные чаптеры как на Blu-Ray

General
Unique ID : 171096168026041293446197146753941963050 (0x80B7EC5FD26895C4B81BF5CB63AD012A)
Complete name : D:\ Batman.Assault.on.Arkham.2014.HDRip-AVC.mkv
Format : Matroska
Format version : Version 4 / Version 2
File size : 2.07 GiB
Duration : 1h 15mn
Overall bit rate : 3 900 Kbps
Movie name : Batman: Assault on Arkham (2014) - Release for HDCLUB by SbR
Encoded date : UTC 2014-10-31 20:10:09
Writing application : mkvmerge v7.2.0 ('On Every Street') 64bit built on Sep 13 2014 15:52:10
Writing library : libebml v1.3.0 + libmatroska v1.4.1
DURATION : 01:12:29.680000000
NUMBER_OF_FRAMES : 774
NUMBER_OF_BYTES : 39671
_STATISTICS_WRITING_APP : mkvmerge v7.2.0 ('On Every Street') 64bit built on Sep 13 2014 15:52:10
_STATISTICS_WRITING_DATE_UTC : 2014-10-31 20:10:09
_STATISTICS_TAGS : BPS DURATION NUMBER_OF_FRAMES NUMBER_OF_BYTES
Attachment : Yes

Video
ID : 1
Format : AVC
Format/Info : Advanced Video Codec
Format profile : Main@L4.1
Format settings, CABAC : Yes
Format settings, ReFrames : 4 frames
Codec ID : V_MPEG4/ISO/AVC
Duration : 1h 15mn
Bit rate : 2 031 Kbps
Width : 1 024 pixels
Height : 576 pixels
Display aspect ratio : 16:9
Frame rate mode : Constant
Frame rate : 23.976 fps
Color space : YUV
Chroma subsampling : 4:2:0
Bit depth : 8 bits
Scan type : Progressive
Bits/(Pixel*Frame) : 0.144
Stream size : 1.08 GiB (52%)
Language : English
Default : Yes
Forced : No

Audio #1
ID : 2
Format : AC-3
Format/Info : Audio Coding 3
Mode extension : CM (complete main)
Format settings, Endianness : Big
Codec ID : A_AC3
Duration : 1h 15mn
Bit rate mode : Constant
Bit rate : 448 Kbps
Channel(s) : 6 channels
Channel positions : Front: L C R, Side: L R, LFE
Sampling rate : 48.0 KHz
Bit depth : 16 bits
Compression mode : Lossy
Stream size : 243 MiB (11%)
Language : Russian
Default : Yes
Forced : No

Audio #2
ID : 3
Format : AC-3
Format/Info : Audio Coding 3
Mode extension : CM (complete main)
Format settings, Endianness : Big
Codec ID : A_AC3
Duration : 1h 15mn
Bit rate mode : Constant
Bit rate : 448 Kbps
Channel(s) : 6 channels
Channel positions : Front: L C R, Side: L R, LFE
Sampling rate : 48.0 KHz
Bit depth : 16 bits
Compression mode : Lossy
Stream size : 243 MiB (11%)
Language : Russian
Default : No
Forced : No

Audio #3
ID : 4
Format : AC-3
Format/Info : Audio Coding 3
Mode extension : CM (complete main)
Format settings, Endianness : Big
Codec ID : A_AC3
Duration : 1h 15mn
Bit rate mode : Constant
Bit rate : 448 Kbps
Channel(s) : 6 channels
Channel positions : Front: L C R, Side: L R, LFE
Sampling rate : 48.0 KHz
Bit depth : 16 bits
Compression mode : Lossy
Stream size : 243 MiB (11%)
Language : Russian
Default : No
Forced : No

Audio #4
ID : 5
Format : AC-3
Format/Info : Audio Coding 3
Mode extension : CM (complete main)
Format settings, Endianness : Big
Codec ID : A_AC3
Duration : 1h 15mn
Bit rate mode : Constant
Bit rate : 448 Kbps
Channel(s) : 6 channels
Channel positions : Front: L C R, Side: L R, LFE
Sampling rate : 48.0 KHz
Bit depth : 16 bits
Compression mode : Lossy
Stream size : 243 MiB (11%)
Language : English
Default : No
Forced : No

Text #1
ID : 6
Format : UTF-8
Codec ID : S_TEXT/UTF8
Codec ID/Info : UTF-8 Plain Text
Language : Russian
Default : No
Forced : No

Text #2
ID : 7
Format : UTF-8
Codec ID : S_TEXT/UTF8
Codec ID/Info : UTF-8 Plain Text
Title : Dakota Family
Language : Russian
Default : No
Forced : No

Text #3
ID : 8
Format : UTF-8
Codec ID : S_TEXT/UTF8
Codec ID/Info : UTF-8 Plain Text
Language : English
Default : No
Forced : No

Text #4
ID : 9
Format : UTF-8
Codec ID : S_TEXT/UTF8
Codec ID/Info : UTF-8 Plain Text
Language : Ukrainian
Default : No
Forced : No

Menu
00:00:00.000 : en:Chapter 1
00:09:50.631 : en:Chapter 2
00:20:56.797 : en:Chapter 3
00:30:06.721 : en:Chapter 4
00:38:57.418 : en:Chapter 5
00:50:28.692 : en:Chapter 6
00:59:18.471 : en:Chapter 7
01:09:11.856 : en:Chapter 8
01:12:53.160 : en:Chapter 9


Релиз от: pic
pic


Информация
Информация Скриншоты Пиры Скачавшие Список файлов
Залил Оценка Просмотров Скачан Файлов
АРХАНГЕЛ 0 726451

Теги
мультфильм, боевик, триллер, криминал

Похожие раздачи

Бэтмен: Убийственная шутка (2016) HDRip 1.46 GB

Бэтмен: Убийственная шутка / Batman: The Killing Joke (2016) HDRip-AVC | L 1.68 GB

Бэтмен: Убийственная шутка (2016) BDRip 1080p 5.81 GB

Бэтмен: Убийственная шутка (2016) BDRip 720p 3.49 GB

Бэтмен против Супермена: На заре справедливости (2016) Blu-Ray Remux 1080p | Расширенная версия 37.46 GB

Бэтмен против Супермена: На заре справедливости (2016) BDRip 1080p | Расширенная версия 19.27 GB

Бэтмен против Супермена: На заре справедливости (2016) BDRip 720p | Расширенная версия 9.34 GB

Бэтмен против Супермена: На заре справедливости (2016) HDRip | Расширенная версия 2.06 GB

Бэтмен: Дурная кровь / Batman: Bad Blood (2016) BDRip 1080p 5.89 GB

Безграничный Бэтмен: Хаос / Batman Unlimited: Monster Mayhem (2015) BDRip 720p | iTunes 2.86 GB

Больше похожих раздач →

Список комментариев
Комментарии отсутствуют

Добавить комментарий
Внимание
Гости не могут оставлять комментарии, авторизуйтесь.

Панель навигации

ПОПУЛЯРНЫЕ РАЗДАЧИ
скачать торрент Ледокол (2016) WEB-DLRip | iTunesскачать торрент Доктор Стрэндж (2016) TS
скачать торрент Ледокол (2016) WEB-DL 1080p | iTunesскачать торрент Дуэлянт (2016) CAMRip
скачать торрент Отряд самоубийц (2016) BDRip 1080p | Расширeнная версия | iTunesскачать торрент Джейсон Борн (2016) HDTV 720p | Чистый звук
скачать торрент Первый мститель: Противостояние (2016) BDRip | IMAX Edition | iTunesскачать торрент Тарзан. Легенда (2016) HDRip | iTunes
скачать торрент Dark Souls 3: Deluxe Edition (2016) PC | RePack от xatabскачать торрент Люди Икс: Апокалипсис / X-Men: Apocalypse (2016) BDRip 720p | Лицензия

Будь с нами!


Наши друзья 



Информация, расположенная на данном сервере, предназначена исключительно для частного использования и не может быть загружена/перенесена на другой компьютер. Ни владелец сайта, ни хостинг-провайдер, ни любые другие физические или юридические лица не могут нести никакой отвественностиза любое использование материалов данного сайта.

© 2012-2016 TRACK.KG.