Загрузить Adobe Flash Player
Как тут качать? :: Как встать на раздачу?

Скачать / Download torrent  
Хэш: a31b03c6b07aa4cff4c84f843a4cd45e52d25318
Добавлен: 20 октября 2014 в 18:22:13
Категория: Фильмы » Зарубежное кино » Фантастика
Размер: 1.89 GB
Проверил: АРХАНГЕЛ 20 октября 2014 в 18:22:13

Раздают: 198 Качают: 38

Космическая станция 76 / Space Station 76 (2014) WEB-DLRip-AVC | iTunes

pic

«Добро пожаловать в будущее Вашего прошлого»

Название: Космическая станция 76
Оригинальное название: Space Station 76

Год выхода: 2014
Страна: США / Om Films, Rival Pictures
Жанр: Фантастика, Драма, Комедия
Перевод: Многоголосый закадровый, профессиональный –iTunes
Оригинальная аудиодорожка: Английский

Режиссер: Джек Плотник
В ролях: Патрик Уилсон, Лив Тайлер, Мариса Кохлан, Мэтт Бомер, Джерри О`Коннелл, Кайли Роджерс, Кали Роча, Виктор Тогунде, Сэм Пэнкейк, Майкл Стоянов

О фильме: Версия будущего в духе 70-х. Фильм рассказывает о группе людей и роботов, живущих на космической станции. Однажды к ним прибывает новый помощник капитана, что заставляет всех сильно напрячься.

pic pic pic pic pic

Качество: WEB-DLRip-AVC
Формат: MKV
Продолжительность: 01:34:51
Видео: AVC, 1024 x 416, ~2 026 Kbps
Звук: Русский /Английский: AC3, 3/2 (L,C,R,l,r) + LFE ch, ~384 kbps

Релиз от pic

General
Unique ID : 232729293825579325972802399795387522312 (0xAF160816610C44B2B00175800FBB5D08)
Complete name : D:\ Космическая.станция.76.2014.WEB-DLRip-AVC.mkv
Format : Matroska
Format version : Version 4 / Version 2
File size : 1.89 GiB
Duration : 1h 34mn
Overall bit rate : 2 850 Kbps
Encoded date : UTC 2014-10-20 08:07:13
Writing application : mkvmerge v7.2.0 ('On Every Street') 64bit built on Sep 13 2014 15:52:10
Writing library : libebml v1.3.0 + libmatroska v1.4.1
DURATION : 01:34:51.712000000
NUMBER_OF_FRAMES : 177866
NUMBER_OF_BYTES : 273202176
_STATISTICS_WRITING_APP : mkvmerge v7.2.0 ('On Every Street') 64bit built on Sep 13 2014 15:52:10
_STATISTICS_WRITING_DATE_UTC : 2014-10-20 08:07:13
_STATISTICS_TAGS : BPS DURATION NUMBER_OF_FRAMES NUMBER_OF_BYTES

Video
ID : 1
Format : AVC
Format/Info : Advanced Video Codec
Format profile : Main@L4.1
Format settings, CABAC : Yes
Format settings, ReFrames : 4 frames
Codec ID : V_MPEG4/ISO/AVC
Duration : 1h 34mn
Bit rate : 2 026 Kbps
Width : 1 024 pixels
Height : 416 pixels
Display aspect ratio : 2.462
Frame rate mode : Constant
Frame rate : 23.976 fps
Color space : YUV
Chroma subsampling : 4:2:0
Bit depth : 8 bits
Scan type : Progressive
Bits/(Pixel*Frame) : 0.198
Stream size : 1.34 GiB (71%)
Default : Yes
Forced : No

Audio #1
ID : 2
Format : AC-3
Format/Info : Audio Coding 3
Mode extension : CM (complete main)
Format settings, Endianness : Big
Codec ID : A_AC3
Duration : 1h 34mn
Bit rate mode : Constant
Bit rate : 384 Kbps
Channel(s) : 6 channels
Channel positions : Front: L C R, Side: L R, LFE
Sampling rate : 48.0 KHz
Bit depth : 16 bits
Compression mode : Lossy
Stream size : 261 MiB (13%)
Language : Russian
Default : Yes
Forced : No

Audio #2
ID : 3
Format : AC-3
Format/Info : Audio Coding 3
Mode extension : CM (complete main)
Format settings, Endianness : Big
Codec ID : A_AC3
Duration : 1h 34mn
Bit rate mode : Constant
Bit rate : 384 Kbps
Channel(s) : 6 channels
Channel positions : Front: L C R, Side: L R, LFE
Sampling rate : 48.0 KHz
Bit depth : 16 bits
Compression mode : Lossy
Stream size : 261 MiB (13%)
Default : No
Forced : No

Menu
00:00:00.000 : en:Chapter 1
00:05:26.242 : en:Chapter 2
00:10:52.193 : en:Chapter 3
00:16:42.002 : en:Chapter 4
00:21:12.022 : en:Chapter 5
00:26:28.171 : en:Chapter 6
00:33:03.233 : en:Chapter 7
00:40:21.212 : en:Chapter 8
00:45:47.122 : en:Chapter 9
00:50:56.181 : en:Chapter 10
00:56:37.022 : en:Chapter 11
01:07:05.150 : en:Chapter 12
01:11:38.089 : en:Chapter 13
01:16:28.171 : en:Chapter 14
01:24:05.211 : en:Chapter 15
01:30:37.187 : en:Chapter 16



pic


Информация
Информация Скриншоты Пиры Скачавшие Список файлов
Залил Оценка Просмотров Скачан Файлов
АРХАНГЕЛ 0 535471

Теги
фантастика, драма, комедия

Похожие раздачи

Поиск не дал результатов.Больше похожих раздач →

Список комментариев
Комментарии отсутствуют

Добавить комментарий
Внимание
Гости не могут оставлять комментарии, авторизуйтесь.

Панель навигации

ПОПУЛЯРНЫЕ РАЗДАЧИ
скачать торрент Ледокол (2016) WEB-DLRip | iTunesскачать торрент Доктор Стрэндж (2016) TS
скачать торрент Ледокол (2016) WEB-DL 1080p | iTunesскачать торрент Дуэлянт (2016) CAMRip
скачать торрент Отряд самоубийц (2016) BDRip 1080p | Расширeнная версия | iTunesскачать торрент Джейсон Борн (2016) HDTV 720p | Чистый звук
скачать торрент Первый мститель: Противостояние (2016) BDRip | IMAX Edition | iTunesскачать торрент Тарзан. Легенда (2016) HDRip | iTunes
скачать торрент Dark Souls 3: Deluxe Edition (2016) PC | RePack от xatabскачать торрент Люди Икс: Апокалипсис / X-Men: Apocalypse (2016) BDRip 720p | Лицензия

Будь с нами!


Наши друзья 



Информация, расположенная на данном сервере, предназначена исключительно для частного использования и не может быть загружена/перенесена на другой компьютер. Ни владелец сайта, ни хостинг-провайдер, ни любые другие физические или юридические лица не могут нести никакой отвественностиза любое использование материалов данного сайта.

© 2012-2016 TRACK.KG.