Загрузить Adobe Flash Player
Как тут качать? :: Как встать на раздачу?

Скачать / Download torrent  
Хэш: 7b54bdc6d51f571b6badd3282b4c06b905b41db3
Добавлен: 19 октября 2014 в 17:02:51
Категория: Фильмы » Фильмы HD / BD
Размер: 4.50 GB
Проверил: АРХАНГЕЛ 19 октября 2014 в 17:02:51

Раздают: 99 Качают: 32

Таинство / The Sacrament (2013) BDRip 720p | L1

pic

Название: Таинство
Оригинальное название: The Sacrament

Год выхода: 2013
Страна: США / Arcade Pictures, Worldview Entertainment
Жанр: ужасы, триллер
Перевод: Любительское (одноголосое) - datynet
Оригинальная аудиодорожка: English

Режиссер: Тай Уэст
В ролях: Эми Саймец, Джо Сванберг, Кейт Лин Шейл, Эй Джей Боуэн, Джин Джонс, Эндрю Неннингер, Шоун Парсонс, Мэдисон Эбшер, Донна Биско

О фильме: Трое приятелей-журналистов отправляются на выходные в гости к родственнику одного из них, живущему в глуши с группой отшельников. По приезду туда друзья узнают о многих странностях здешних обитателей. И больше всего их поражает та преданность, с которой местные жители подчиняются некоему загадочному отцу. Естественно, пребывание в этой необычной коммуне не может закончиться хорошо для героев...

pic pic pic pic pic

Качество: BDRip 720p
Формат: MKV
Продолжительность: 01:39:08
Видео: AVC, ~4791 kb/s, 1280x720
Звук: Russian: AC3, 192 kb/s (2 ch) / English: DTS, 1510 kb/s (6 ch)
Субтитры: Russian tolmakoff, English
Дополнительно: Сохранены оригинальные чаптеры как на Blu-Ray

General
The.Sacrament.2013.Blu.Ray.720p.CINEMANIA.mkv
Format : Matroska
Format version : Version 4 / Version 2
File size : 4.50 GiB
Duration : 1h 39mn
Overall bit rate : 6 496 Kbps
Movie name : Release Group CINEMANIA
Encoded date : UTC 2014-10-17 17:21:52
Writing application : mkvmerge v7.2.0 ('On Every Street') 64bit built on Sep 13 2014 15:52:10
Writing library : libebml v1.3.0 + libmatroska v1.4.1

Video
ID : 1
Format : AVC
Format/Info : Advanced Video Codec
Format profile : High@L4.1
Format settings, CABAC : Yes
Format settings, ReFrames : 9 frames
Codec ID : V_MPEG4/ISO/AVC
Duration : 1h 39mn
Bit rate : 4 791 Kbps
Width : 1 280 pixels
Height : 720 pixels
Display aspect ratio : 16:9
Frame rate mode : Constant
Frame rate : 23.976 fps
Color space : YUV
Chroma subsampling : 4:2:0
Bit depth : 8 bits
Scan type : Progressive
Bits/(Pixel*Frame) : 0.217
Stream size : 3.23 GiB (72%)
Title : Release Group CINEMANIA
Writing library : x264 core 138 r2358 9e941d1
Encoding settings : cabac=1 / ref=9 / deblock=1:-3:-3 / analyse=0x3:0x113 / me=umh / subme=11 / psy=1 / psy_rd=1.10:0.15 / mixed_ref=1 / me_range=32 / chroma_me=1 / trellis=2 / 8x8dct=1 / cqm=0 / deadzone=21,11 / fast_pskip=0 / chroma_qp_offset=-2 / threads=18 / lookahead_threads=1 / sliced_threads=0 / nr=0 / decimate=1 / interlaced=0 / bluray_compat=0 / constrained_intra=0 / bframes=6 / b_pyramid=2 / b_adapt=2 / b_bias=0 / direct=3 / weightb=1 / open_gop=0 / weightp=2 / keyint=250 / keyint_min=23 / scenecut=40 / intra_refresh=0 / rc_lookahead=40 / rc=2pass / mbtree=0 / bitrate=4791 / ratetol=1.0 / qcomp=0.60 / qpmin=0 / qpmax=69 / qpstep=4 / cplxblur=20.0 / qblur=0.5 / vbv_maxrate=40000 / vbv_bufsize=30000 / nal_hrd=none / ip_ratio=1.40 / pb_ratio=1.30 / aq=1:0.80
Language : English
Default : Yes
Forced : No

Audio #1
ID : 2
Format : AC-3
Format/Info : Audio Coding 3
Mode extension : CM (complete main)
Format settings, Endianness : Big
Codec ID : A_AC3
Duration : 1h 39mn
Bit rate mode : Constant
Bit rate : 192 Kbps
Channel(s) : 2 channels
Channel positions : Front: L R
Sampling rate : 48.0 KHz
Bit depth : 16 bits
Compression mode : Lossy
Stream size : 136 MiB (3%)
Title : datynet
Language : Russian
Default : Yes
Forced : Yes

Audio #2
ID : 3
Format : DTS
Format/Info : Digital Theater Systems
Mode : 16
Format settings, Endianness : Big
Codec ID : A_DTS
Duration : 1h 39mn
Bit rate mode : Constant
Bit rate : 1 509 Kbps
Channel(s) : 6 channels
Channel positions : Front: L C R, Side: L R, LFE
Sampling rate : 48.0 KHz
Bit depth : 24 bits
Compression mode : Lossy
Stream size : 1.04 GiB (23%)
Language : English
Default : No
Forced : No

Text #2
ID : 5
Format : UTF-8
Codec ID : S_TEXT/UTF8
Codec ID/Info : UTF-8 Plain Text
Title : tolmakoff
Language : Russian
Default : No
Forced : No

Text #3
ID : 6
Format : UTF-8
Codec ID : S_TEXT/UTF8
Codec ID/Info : UTF-8 Plain Text
Language : English
Default : No
Forced : No

Menu
00:00:00.000 : en:00:00:00.000
00:05:00.300 : en:00:05:00.300
00:09:31.446 : en:00:09:31.446
00:15:11.702 : en:00:15:11.702
00:19:42.515 : en:00:19:42.515
00:24:58.706 : en:00:24:58.706
00:30:14.479 : en:00:30:14.479
00:36:28.728 : en:00:36:28.728
00:42:16.492 : en:00:42:16.492
00:47:49.241 : en:00:47:49.241
00:57:32.449 : en:00:57:32.449
01:02:49.140 : en:01:02:49.140
01:08:27.895 : en:01:08:27.895
01:17:34.900 : en:01:17:34.900
01:20:50.929 : en:01:20:50.929
01:26:48.245 : en:01:26:48.245



Релиз от pic

pic


Информация
Информация Скриншоты Пиры Скачавшие Список файлов
Залил Оценка Просмотров Скачан Файлов
АРХАНГЕЛ 0 307581

Теги
ужасы, триллер

Похожие раздачи

Поиск не дал результатов.Больше похожих раздач →

Список комментариев
Комментарии отсутствуют

Добавить комментарий
Внимание
Гости не могут оставлять комментарии, авторизуйтесь.

Панель навигации

ПОПУЛЯРНЫЕ РАЗДАЧИ
скачать торрент Ледокол (2016) WEB-DLRip | iTunesскачать торрент Доктор Стрэндж (2016) TS
скачать торрент Ледокол (2016) WEB-DL 1080p | iTunesскачать торрент Дуэлянт (2016) CAMRip
скачать торрент Отряд самоубийц (2016) BDRip 1080p | Расширeнная версия | iTunesскачать торрент Джейсон Борн (2016) HDTV 720p | Чистый звук
скачать торрент Первый мститель: Противостояние (2016) BDRip | IMAX Edition | iTunesскачать торрент Тарзан. Легенда (2016) HDRip | iTunes
скачать торрент Dark Souls 3: Deluxe Edition (2016) PC | RePack от xatabскачать торрент Люди Икс: Апокалипсис / X-Men: Apocalypse (2016) BDRip 720p | Лицензия

Будь с нами!


Наши друзья 



Информация, расположенная на данном сервере, предназначена исключительно для частного использования и не может быть загружена/перенесена на другой компьютер. Ни владелец сайта, ни хостинг-провайдер, ни любые другие физические или юридические лица не могут нести никакой отвественностиза любое использование материалов данного сайта.

© 2012-2016 TRACK.KG.