Загрузить Adobe Flash Player
Как тут качать? :: Как встать на раздачу?

Скачать / Download torrent  
Хэш: ae359c586966ec181aa128d331a93ed621bc4314
Добавлен: 12 октября 2014 в 15:52:19
Категория: Мультфильмы
Размер: 2.37 GB
Проверил: АРХАНГЕЛ 12 октября 2014 в 15:52:19

Раздают: 195 Качают: 45

Том и Джерри: Потерянный дракон / Tom & Jerry: The Lost Dragon (2014) BDRip 720p | Лицензия

pic

Название: Том и Джерри: Потерянный дракон
Оригинальное название: Tom & Jerry: The Lost Dragon

Год выхода: 2014
Страна: США / Turner Entertainment Co., Warner Brothers Animation
Жанр: мультфильм, комедия
Перевод: Многоголосый закадровый – Лицензия
Оригинальная аудиодорожка: Английский

Режиссер: Тони Червоне
В ролях: Келли Стейблз, Викки Льюис, Джим Каммингс, Лорейн Ньюмен, Уэйн Найт

О фильме: Всеми любимая парочка, кот и мышь, вернулись в этой волшебной сказке! А вместе с ними и песни, веселье и магия. Приключение наших героев начинается с того, что они находят странное яйцо, которое было украдено у огромного огнедышащего дракона! Вскоре из яйца вылупляется малыш Паффи и решает, что Том — это его мама. Настоящая мама-дракониха хочет вернуть своего драконёнка. Но не она одна, за малышом охотится ведьма Дризельда!
С помощью волшебных союзников и зверей Тому и Джерри предстоит остановить ведьму и вернуть детёныша его маме. Вас ждёт магия, сражения и, конечно же, море веселья! Смогут ли друзья помочь героям этой сказки, будет ли у неё счастливый финал? Отправьтесь в это увлекательное путешествие всей семьёй и сами узнаете!

pic pic pic pic

Качество: BDRip 720p
Формат: MKV
Продолжительность: 00:56:41
Видео: MPEG-4 AVC/H.264, 1280х720, ~4001 kbps
Звук: Русский: AC-3, 6 ch, 448 Kbps / Английский: DTS, 6 ch, 1510 Kbps
Субтитры: Японский, английский, французский, немецкий (Вшитые отключаемые)


Общее
Уникальный идентификатор : 205886634657134863370589743276312268156 (0x9AE452CFD10A3BB99C851954372C8D7C)
Полное имя : D:\Фильмы\Tom.and.Jerry.Poteryannyi.drakon.2014.BDRip.720p.mkv
Формат : Matroska
Версия формата : Version 4 / Version 2
Размер файла : 2,37 Гбайт
Продолжительность : 56 м.
Общий поток : 5975 Кбит/сек
Дата кодирования : UTC 2014-10-07 16:58:54
Программа кодирования : mkvmerge v7.2.0 ('On Every Street') 64bit built on Sep 13 2014 15:52:10
Библиотека кодирования : libebml v1.3.0 + libmatroska v1.4.1
DURATION : 00:56:25.311000000
NUMBER_OF_FRAMES : 621
NUMBER_OF_BYTES : 2057618
_STATISTICS_WRITING_APP : mkvmerge v7.2.0 ('On Every Street') 64bit built on Sep 13 2014 15:52:10
_STATISTICS_WRITING_DATE_UTC : 2014-10-07 16:58:54
_STATISTICS_TAGS : BPS DURATION NUMBER_OF_FRAMES NUMBER_OF_BYTES
Attachment : Yes

Видео
Идентификатор : 1
Формат : AVC
Формат/Информация : Advanced Video Codec
Профиль формата : High@L4.1
Параметр CABAC формата : Да
Параметр ReFrames формата : 5 кадров
Идентификатор кодека : V_MPEG4/ISO/AVC
Продолжительность : 56 м.
Битрейт : 4000 Кбит/сек
Ширина : 1280 пикселей
Высота : 720 пикселей
Соотношение сторон : 16:9
Режим частоты кадров : Постоянный
Частота кадров : 23,976 кадра/сек
Цветовое пространство : YUV
Субдискретизация насыщенности : 4:2:0
Битовая глубина : 8 бит
Тип развёртки : Прогрессивная
Бит/(Пиксели*Кадры) : 0.181
Размер потока : 1,54 Гбайт (65%)
Библиотека кодирования : x264 core 142 r2479 dd79a61
Настройки программы : cabac=1 / ref=5 / deblock=1:0:0 / analyse=0x3:0x133 / me=umh / subme=7 / psy=1 / psy_rd=1.00:0.00 / mixed_ref=1 / me_range=16 / chroma_me=1 / trellis=1 / 8x8dct=1 / cqm=0 / deadzone=21,11 / fast_pskip=0 / chroma_qp_offset=-2 / threads=6 / lookahead_threads=1 / sliced_threads=0 / nr=0 / decimate=1 / interlaced=0 / bluray_compat=0 / constrained_intra=0 / bframes=3 / b_pyramid=2 / b_adapt=2 / b_bias=0 / direct=3 / weightb=1 / open_gop=0 / weightp=2 / keyint=240 / keyint_min=23 / scenecut=40 / intra_refresh=0 / rc_lookahead=50 / rc=2pass / mbtree=1 / bitrate=4000 / ratetol=1.0 / qcomp=0.60 / qpmin=0 / qpmax=69 / qpstep=4 / cplxblur=20.0 / qblur=0.5 / ip_ratio=1.40 / aq=1:1.00
Язык : English
Default : Да
Forced : Нет
DURATION : 00:56:40.272000000
NUMBER_OF_FRAMES : 81525
NUMBER_OF_BYTES : 1700342734
_STATISTICS_WRITING_APP : mkvmerge v7.2.0 ('On Every Street') 64bit built on Sep 13 2014 15:52:10
_STATISTICS_WRITING_DATE_UTC : 2014-10-07 16:58:54
_STATISTICS_TAGS : BPS DURATION NUMBER_OF_FRAMES NUMBER_OF_BYTES

Аудио #1
Идентификатор : 2
Формат : AC-3
Формат/Информация : Audio Coding 3
Расширение режима : CM (complete main)
Параметр Endianness формата : Big
Идентификатор кодека : A_AC3
Продолжительность : 56 м.
Вид битрейта : Постоянный
Битрейт : 448 Кбит/сек
Каналы : 6 каналов
Расположение каналов : Front: L C R, Side: L R, LFE
Частота : 48,0 КГц
Битовая глубина : 16 бит
Метод сжатия : С потерями
Размер потока : 182 Мбайт (7%)
Заголовок : AC3 / 5.1 / 448 Kbps / Licence
Язык : Russian
Default : Да
Forced : Нет

Аудио #2
Идентификатор : 3
Формат : DTS
Формат/Информация : Digital Theater Systems
Режим : 16
Параметр Endianness формата : Big
Идентификатор кодека : A_DTS
Продолжительность : 56 м.
Вид битрейта : Постоянный
Битрейт : 1509 Кбит/сек
Каналы : 6 каналов
Расположение каналов : Front: L C R, Side: L R, LFE
Частота : 48,0 КГц
Битовая глубина : 24 бит
Метод сжатия : С потерями
Размер потока : 612 Мбайт (25%)
Заголовок : DTS / 5.1 / 1510 Kbps / Original
Язык : English
Default : Нет
Forced : Нет

Текст #1
Идентификатор : 4
Формат : VobSub
Режим смешивания : zlib
Идентификатор кодека : S_VOBSUB
Идентификатор кодека/Информация : The same subtitle format used on DVDs
Язык : Japanese
Default : Да
Forced : Нет

Текст #2
Идентификатор : 5
Формат : VobSub
Режим смешивания : zlib
Идентификатор кодека : S_VOBSUB
Идентификатор кодека/Информация : The same subtitle format used on DVDs
Язык : English
Default : Нет
Forced : Нет

Текст #3
Идентификатор : 6
Формат : VobSub
Режим смешивания : zlib
Идентификатор кодека : S_VOBSUB
Идентификатор кодека/Информация : The same subtitle format used on DVDs
Язык : Japanese
Default : Нет
Forced : Нет

Текст #4
Идентификатор : 7
Формат : VobSub
Режим смешивания : zlib
Идентификатор кодека : S_VOBSUB
Идентификатор кодека/Информация : The same subtitle format used on DVDs
Язык : French
Default : Нет
Forced : Нет

Текст #5
Идентификатор : 8
Формат : VobSub
Режим смешивания : zlib
Идентификатор кодека : S_VOBSUB
Идентификатор кодека/Информация : The same subtitle format used on DVDs
Язык : German
Default : Нет
Forced : Нет

Меню
00:00:00.000 : :00:00:00.000
00:10:44.269 : :00:10:44.269
00:18:27.023 : :00:18:27.023
00:27:48.667 : :00:27:48.667
00:38:25.053 : :00:38:25.053
00:49:43.522 : :00:49:43.522
00:53:39.049 : :00:53:39.049



pic


Информация
Информация Скриншоты Пиры Скачавшие Список файлов
Залил Оценка Просмотров Скачан Файлов
АРХАНГЕЛ 0 711831

Теги
мультфильм, комедия

Похожие раздачи

Поиск не дал результатов.Больше похожих раздач →

Список комментариев
Комментарии отсутствуют

Добавить комментарий
Внимание
Гости не могут оставлять комментарии, авторизуйтесь.

Панель навигации

ПОПУЛЯРНЫЕ РАЗДАЧИ
скачать торрент Ледокол (2016) WEB-DLRip | iTunesскачать торрент Доктор Стрэндж (2016) TS
скачать торрент Ледокол (2016) WEB-DL 1080p | iTunesскачать торрент Дуэлянт (2016) CAMRip
скачать торрент Отряд самоубийц (2016) BDRip 1080p | Расширeнная версия | iTunesскачать торрент Джейсон Борн (2016) HDTV 720p | Чистый звук
скачать торрент Первый мститель: Противостояние (2016) BDRip | IMAX Edition | iTunesскачать торрент Тарзан. Легенда (2016) HDRip | iTunes
скачать торрент Dark Souls 3: Deluxe Edition (2016) PC | RePack от xatabскачать торрент Люди Икс: Апокалипсис / X-Men: Apocalypse (2016) BDRip 720p | Лицензия

Будь с нами!


Наши друзья 



Информация, расположенная на данном сервере, предназначена исключительно для частного использования и не может быть загружена/перенесена на другой компьютер. Ни владелец сайта, ни хостинг-провайдер, ни любые другие физические или юридические лица не могут нести никакой отвественностиза любое использование материалов данного сайта.

© 2012-2016 TRACK.KG.