Загрузить Adobe Flash Player
Как тут качать? :: Как встать на раздачу?

Скачать / Download torrent  
Хэш: 8ddf1703a751d0c2a9cef86aea51f67c1369568f
Добавлен: 15 июля 2014 в 11:15:55
Категория: Фильмы » Фильмы HD / BD
Размер: 3.54 GB
Проверил: АРХАНГЕЛ 15 июля 2014 в 11:15:55

Раздают: 3 Качают: 278

Суперколлайдер / Supercollider (2013) BDRip 720p | P

pic

«Требуется всего 7 секунд, чтобы разрушить мир...»

Название: Суперколлайдер
Оригинальное название: Supercollider

Год выхода: 2013
Страна: Канада / Supercollider Productions
Жанр: Фантастика, боевик, драма, приключения
Перевод: Профессиональный многоголосый
Оригинальная аудиодорожка: Aнглийски

Режиссер: Джеффри Скотт Ландо
В ролях: Робин Данн, Эми Бэйли, Брендан Бейзер, Энцо Чиленти, Филип Руди, Яна Маринова, Эмилиа Клэйн, Джордан Андонов, Джейсон Френсис

О фильме: Новый Большой адронный коллайдер, созданный в США, несёт угрозу всему миру. Сможет ли возглавляющий проект доктор Виктор Брокэн предотвратить её?

pic pic pic pic pic

Качество: BDRip 720p
Формат: MKV
Продолжительность: 01:27:50
Видео: AVC, 1280 x 720, ~3960 kbps
Звук: Русский (AC3, 2 ch, 192 kbps), английский (DTS, 6 ch, 1509 kbps)
Дополнительно: Сохранены оригинальные чаптеры как на Blu-ray

Общее
Уникальный идентификатор : 215463535248560747546176273344999199369 (0xA218C47755315964AE25F01AB0341289)
Полное имя : G:\ Суперколлайдер Supercollider 2013\Новая папка\supercollider.2013.BDRip 720p.mkv
Формат : Matroska
Версия формата : Version 4 / Version 2
Размер файла : 3,54 Гбайт
Продолжительность : 1 ч. 27 м.
Общий поток : 5776 Кбит/сек
Дата кодирования : UTC 2014-07-15 04:25:15
Программа кодирования : mkvmerge v6.9.1 ('Blue Panther') 64bit built on Apr 18 2014 18:23:38
Библиотека кодирования : libebml v1.3.0 + libmatroska v1.4.1

Видео
Идентификатор : 1
Формат : AVC
Формат/Информация : Advanced Video Codec
Профиль формата : Main@L4.1
Параметр CABAC формата : Да
Параметр ReFrames формата : 1 кадр
Идентификатор кодека : V_MPEG4/ISO/AVC
Продолжительность : 1 ч. 27 м.
Битрейт : 3960 Кбит/сек
Ширина : 1280 пикселей
Высота : 720 пикселей
Соотношение сторон : 16:9
Режим частоты кадров : Постоянный
Частота кадров : 23,976 кадра/сек
Цветовое пространство : YUV
Субдискретизация насыщенности : 4:2:0
Битовая глубина : 8 бит
Тип развёртки : Прогрессивная
Бит/(Пиксели*Кадры) : 0.179
Размер потока : 2,43 Гбайт (69%)
Default : Да
Forced : Нет

Аудио #1
Идентификатор : 2
Формат : AC-3
Формат/Информация : Audio Coding 3
Расширение режима : CM (complete main)
Параметр Endianness формата : Big
Идентификатор кодека : A_AC3
Продолжительность : 1 ч. 27 м.
Вид битрейта : Постоянный
Битрейт : 192 Кбит/сек
Каналы : 2 канала
Расположение каналов : Front: L R
Частота : 48,0 КГц
Битовая глубина : 16 бит
Метод сжатия : С потерями
Размер потока : 121 Мбайт (3%)
Язык : Russian
Default : Да
Forced : Нет

Аудио #2
Идентификатор : 3
Формат : DTS
Формат/Информация : Digital Theater Systems
Режим : 16
Параметр Endianness формата : Big
Идентификатор кодека : A_DTS
Продолжительность : 1 ч. 27 м.
Вид битрейта : Постоянный
Битрейт : 1509 Кбит/сек
Каналы : 6 каналов
Расположение каналов : Front: L C R, Side: L R, LFE
Частота : 48,0 КГц
Битовая глубина : 16 бит
Метод сжатия : С потерями
Размер потока : 948 Мбайт (26%)
Язык : English
Default : Нет
Forced : Нет

Меню
00:00:00.000 : en:00:00:00.000
00:09:59.974 : en:00:09:59.974
00:19:59.990 : en:00:19:59.990
00:29:59.964 : en:00:29:59.964
00:39:59.980 : en:00:39:59.980
00:49:59.997 : en:00:49:59.997
00:59:59.971 : en:00:59:59.971
01:09:59.987 : en:01:09:59.987
01:19:59.961 : en:01:19:59.961



pic


Информация
Информация Скриншоты Пиры Скачавшие Список файлов
Залил Оценка Просмотров Скачан Файлов
АРХАНГЕЛ 0 287531

Теги
фантастика, боевик, драма, приключения

Похожие раздачи

Поиск не дал результатов.Больше похожих раздач →

Список комментариев
Комментарии отсутствуют

Добавить комментарий
Внимание
Гости не могут оставлять комментарии, авторизуйтесь.

Панель навигации

ПОПУЛЯРНЫЕ РАЗДАЧИ
скачать торрент Ледокол (2016) WEB-DLRip | iTunesскачать торрент Доктор Стрэндж (2016) TS
скачать торрент Ледокол (2016) WEB-DL 1080p | iTunesскачать торрент Дуэлянт (2016) CAMRip
скачать торрент Отряд самоубийц (2016) BDRip 1080p | Расширeнная версия | iTunesскачать торрент Джейсон Борн (2016) HDTV 720p | Чистый звук
скачать торрент Первый мститель: Противостояние (2016) BDRip | IMAX Edition | iTunesскачать торрент Тарзан. Легенда (2016) HDRip | iTunes
скачать торрент Dark Souls 3: Deluxe Edition (2016) PC | RePack от xatabскачать торрент Люди Икс: Апокалипсис / X-Men: Apocalypse (2016) BDRip 720p | Лицензия

Будь с нами!


Наши друзья 



Информация, расположенная на данном сервере, предназначена исключительно для частного использования и не может быть загружена/перенесена на другой компьютер. Ни владелец сайта, ни хостинг-провайдер, ни любые другие физические или юридические лица не могут нести никакой отвественностиза любое использование материалов данного сайта.

© 2012-2016 TRACK.KG.