Загрузить Adobe Flash Player
Как тут качать? :: Как встать на раздачу?

Скачать / Download torrent  
Хэш: 8a6c81c68f5f566e1b80e3ebdeefc87e57ff4a68
Добавлен: 12 июля 2014 в 19:04:50
Категория: Фильмы » Зарубежное кино » Фэнтези
Размер: 1.54 GB
Проверил: АРХАНГЕЛ 12 июля 2014 в 19:04:50

Раздают: 527 Качают: 203

Женщина-пистолет / Gun Woman (2014) BDRip-AVC | L1

pic

Название: Женщина-пистолет
Оригинальное название: Gun Woman

Год выхода: 2014
Страна: Япония / Maxam
Жанр: фэнтези, боевик
Перевод: Любительский (одноголосый)-den904 (Ненормативная лексика)
Оригинальная аудиодорожка: Английский

Режиссер: Курандо Мицутаке
В ролях: Асами, Каири Нарита, Нориаки Камата, Мэттью Флойд Миллер,Дин Симона, Тошия Агата,Марко Баллар, Марианн Бург, Стэйси Чу, Д. Оливия Джордан

О фильме: История о японском враче, который клянется отомстить сумасшедшему садисту, убившему его любимую жену. Для этого он разрабатывает план мести и превращает молодую японку в самого смертоносного убийцу в мире…

pic pic pic pic

Качество: BDRip-AVC
Формат: MKV
Продолжительность: 01:25:55
Видео: AVC, 1024 x 576, ~1869 kbps
Звук: Русский: AC3, 2 канала, 192 kbit/s / Английский: AC3, 2 канала, 448 kbit/s
Субтитры: Английские , Голландские, Немецкие (PGS)

pic

ВНИМАНИЕ! В ФИЛЬМЕ ПРИСУТСТВУЮТ КРАЙНЕ ЖЕСТОКИЕ И КРОВАВЫЕ СЦЕНЫ, А ТАКЖЕ СЦЕНЫ СЕКСУАЛЬНОГО НАСИЛИЯ. ФИЛЬМ НЕ РЕКОМЕНДОВАН ЛИЦАМ НЕ ДОСТИГШИМ 18 ЛЕТ.

Общее
Уникальный идентификатор : 203049494609277777684574564614351390770 (0x98C1E901F44D1539A2E34FB18ABC8832)
Полное имя : G:\ Женщина-пистолет Gun Woman (2014)\Новая папка\Gun.Woman.2014.BDRip-AVC.mkv
Формат : Matroska
Версия формата : Version 4 / Version 2
Размер файла : 1,54 Гбайт
Продолжительность : 1 ч. 25 м.
Общий поток : 2560 Кбит/сек
Дата кодирования : UTC 2014-07-12 12:13:07
Программа кодирования : mkvmerge v6.9.1 ('Blue Panther') 64bit built on Apr 18 2014 18:23:38
Библиотека кодирования : libebml v1.3.0 + libmatroska v1.4.1
TITLE : Gun Woman
DURATION : 01:21:20.042000000
NUMBER_OF_FRAMES : 777
NUMBER_OF_BYTES : 8666125
_STATISTICS_WRITING_APP : mkvmerge v7.0.0 ('Where We Going') 32bit built on Jun 9 2014 15:08:34
_STATISTICS_WRITING_DATE_UTC : 2014-07-11 13:13:28
_STATISTICS_TAGS : BPS DURATION NUMBER_OF_FRAMES NUMBER_OF_BYTES

Видео
Идентификатор : 1
Формат : AVC
Формат/Информация : Advanced Video Codec
Профиль формата : Main@L4.1
Параметр CABAC формата : Да
Параметр ReFrames формата : 1 кадр
Идентификатор кодека : V_MPEG4/ISO/AVC
Продолжительность : 1 ч. 25 м.
Битрейт : 1869 Кбит/сек
Ширина : 1024 пикселя
Высота : 576 пикселей
Соотношение сторон : 16:9
Режим частоты кадров : Постоянный
Частота кадров : 24,000 кадра/сек
Цветовое пространство : YUV
Субдискретизация насыщенности : 4:2:0
Битовая глубина : 8 бит
Тип развёртки : Прогрессивная
Бит/(Пиксели*Кадры) : 0.132
Размер потока : 1,12 Гбайт (73%)
Default : Да
Forced : Нет

Аудио #1
Идентификатор : 2
Формат : AC-3
Формат/Информация : Audio Coding 3
Расширение режима : CM (complete main)
Параметр Endianness формата : Big
Идентификатор кодека : A_AC3
Продолжительность : 1 ч. 25 м.
Вид битрейта : Постоянный
Битрейт : 192 Кбит/сек
Каналы : 2 канала
Расположение каналов : Front: L R
Частота : 48,0 КГц
Битовая глубина : 16 бит
Метод сжатия : С потерями
Размер потока : 118 Мбайт (7%)
Заголовок : den904
Язык : Russian
Default : Да
Forced : Да

Аудио #2
Идентификатор : 3
Формат : AC-3
Формат/Информация : Audio Coding 3
Расширение режима : CM (complete main)
Параметр Endianness формата : Big
Идентификатор кодека : A_AC3
Продолжительность : 1 ч. 25 м.
Вид битрейта : Постоянный
Битрейт : 448 Кбит/сек
Каналы : 2 канала
Расположение каналов : Front: L R
Частота : 44,1 КГц
Битовая глубина : 16 бит
Метод сжатия : С потерями
Размер потока : 275 Мбайт (17%)
Default : Нет
Forced : Нет

Текст #1
Идентификатор : 4
Формат : PGS
Режим смешивания : zlib
Идентификатор кодека : S_HDMV/PGS
Идентификатор кодека/Информация : The same subtitle format used on BDs/HD-DVDs
Язык : English
Default : Да
Forced : Нет

Текст #2
Идентификатор : 5
Формат : PGS
Режим смешивания : zlib
Идентификатор кодека : S_HDMV/PGS
Идентификатор кодека/Информация : The same subtitle format used on BDs/HD-DVDs
Язык : Dutch
Default : Нет
Forced : Нет

Текст #3
Идентификатор : 6
Формат : PGS
Режим смешивания : zlib
Идентификатор кодека : S_HDMV/PGS
Идентификатор кодека/Информация : The same subtitle format used on BDs/HD-DVDs
Язык : German
Default : Нет
Forced : Нет



pic


Информация
Информация Скриншоты Пиры Скачавшие Список файлов
Залил Оценка Просмотров Скачан Файлов
АРХАНГЕЛ 0 598651

Теги
фэнтези, боевик

Похожие раздачи

Женщина за стеной / Die Frau hinter der Wand (2013) BDRip | L2 1.45 GB

Ветреная женщина (1-12 серии из 12) (2014) HDTVRip 7.28 GB

Иоанна - женщина на папском престоле / Die Päpstin (2009) BDRip 1080p 15.35 GB

Деловая женщина / Working Girl (1988) BDRip 1080p by msltel | D, P, 2 x A 20.35 GB

Забытые легенды: Плачущая женщина. Коллекционное издание - Lost Legends: The Weeping Woman. Collector's Edition (2014) Ru {P} 656.91 MB

Город грехов 2: Женщина, ради которой стоит убивать / Sin City: A Dame to Kill For (2014) BDRip 1080p | Лицензия 6.64 GB

Город грехов 2: Женщина, ради которой стоит убивать / Sin City: A Dame to Kill For (2014) BDRip 720p | Лицензия 3.84 GB

Город грехов 2: Женщина, ради которой стоит убивать / Sin City: A Dame to Kill For (2014) HDRip | Лицензия 1.46 GB

Город грехов 2: Женщина, ради которой стоит убивать / Sin City: A Dame to Kill For (2014) TS [ОТ UNIONGANG] 1.37 GB

Другая женщина / The Other Woman (2014) BDRip 1080p | Лицензия 13.79 GB

Больше похожих раздач →

Список комментариев
Комментарии отсутствуют

Добавить комментарий
Внимание
Гости не могут оставлять комментарии, авторизуйтесь.

Панель навигации

ПОПУЛЯРНЫЕ РАЗДАЧИ
скачать торрент Ледокол (2016) WEB-DLRip | iTunesскачать торрент Доктор Стрэндж (2016) TS
скачать торрент Ледокол (2016) WEB-DL 1080p | iTunesскачать торрент Дуэлянт (2016) CAMRip
скачать торрент Отряд самоубийц (2016) BDRip 1080p | Расширeнная версия | iTunesскачать торрент Джейсон Борн (2016) HDTV 720p | Чистый звук
скачать торрент Первый мститель: Противостояние (2016) BDRip | IMAX Edition | iTunesскачать торрент Тарзан. Легенда (2016) HDRip | iTunes
скачать торрент Dark Souls 3: Deluxe Edition (2016) PC | RePack от xatabскачать торрент Люди Икс: Апокалипсис / X-Men: Apocalypse (2016) BDRip 720p | Лицензия

Будь с нами!


Наши друзья 



Информация, расположенная на данном сервере, предназначена исключительно для частного использования и не может быть загружена/перенесена на другой компьютер. Ни владелец сайта, ни хостинг-провайдер, ни любые другие физические или юридические лица не могут нести никакой отвественностиза любое использование материалов данного сайта.

© 2012-2016 TRACK.KG.