Загрузить Adobe Flash Player
Как тут качать? :: Как встать на раздачу?

Скачать / Download torrent  
Хэш: 26f93165c9c9fc856f43f35a2ce7b0f4a8b9ab2a
Добавлен: 22 июня 2014 в 13:08:50
Категория: Мультфильмы
Размер: 1.99 GB
Проверил: АРХАНГЕЛ 22 июня 2014 в 13:08:50

Раздают: 586 Качают: 151

Чебурашка / Cheburashka (2014) WEBRip 720p | D

pic

pic

«Наш няшка – Чебурашка»

Название: Чебурашка
Оригинальное название: Cheburashka

Год выхода: 2014
Страна: Япония, Южная Корея, Россия, Беларусь / Ffangoentertoyment
Жанр: мультфильм, детский, семейный
Перевод: Полное дублирование – Студия "Ориол"

Режиссер: Макото Накамура
В ролях: Лариса Брохман Владимир Ферапонтов Ольга Зверева Дмитрий Филимонов Александр Пожаров Александр Груздев Ольга Шорохова Гарри Бардин Владимир Орёл Антон Морозов

О фильме: Мультфильм из трех историй: «Чебурашка и цирк», «Чебурашка идет в зоопарк» и «Советы Шапокляк». Прологом служит история о появлении Чебурашки в ящике из-под апельсинов, его знакомстве с крокодилом Геной и обретении друзей.

«Чебурашка и цирк» — история о дружбе и мечте. Гена и Чебурашка помогают девочке Маше научиться ходить по канату и осуществляют ее заветное желание — выступать в цирке. В серии «Чебурашка идет в зоопарк» Гена заболел, и Чебурашка отправился вместо него «работать крокодилом» в зоопарке. Возникает веселая путаница. Заключительная история — «Советы Шапокляк». Герои приходят на помощь фокуснику, потерявшему внучку. А Шапокляк открывает бюро платных бесполезных советов.

В этом мультфильме нет истории "Чебурашка идет в зоопарк"

pic pic pic pic


» У команды получалось снимать лишь по 4-5 секунд видео в день, так как покадровая съемка — трудоемкий процесс. Каждый кадр снимается отдельно, а затем вручную двигаются элементы кукол.
» Размеры новых декораций и кукол значительно превышают советские оригиналы.
» Цирк как место действия в одном из сюжетов выбран режиссером неслучайно: в Японии имидж циркового искусства плотно связан с Россией.
» По мнению режиссера Макото Накамура, отношения между Геной и Чебурашкой напоминают отношения между Чарли Чаплином и Малышом из кинофильма «Малыш» (1921).
» Старых партитур из советского мультфильма не сохранилось, поэтому созданную в то время музыку Михаилом Зивом, композитору нового фильма Александру Гусеву приходилось «снимать» с экрана и затем инструментовать партитуру.
» Художника и консультанта Михаила Алдашина японскому режиссеру посоветовал Юрий Норштейн, отрекомендовав его как своего ученика.
» Михаил Алдашин уже работал над Чебурашкой со студией «Пилот», в свое время планировавшей выпустить мультфильм в 3D.
» В Японии – культ Чебурашки. Его плюшевую копию, а также чашки, ручки, футболки с его изображением можно купить почти во всех магазинах, продающих игрушки и сувениры. Чебурашке посвящены сайты и многочисленные сообщества в соцсетях.
» Когда зрители выходят из цирка, среди них можно заметить Ёжика из мультфильма «Ёжик в тумане» (1975).
» По просьбе киностудии "Союзмультфильм" аннулировано прокатное удостоверение мультфильма "Чебурашка" режиссера Макото Накамура. Студия утверждает, что российский прокат японской картины нарушает ее исключительные права на старые отечественные мультфильмы.
Тем не менее российская фирма ООО "Чебурашка", которая получила права для организации проката нового фильма на территории России от японской компании-правообладателя Terebi Tokyo Burodobando, считает аргументацию студии неубедительной. Создатель персонажа Эдуард Успенский резко раскритиковал действия "Союзмультфильма"."Эти люди, которые заявляют, что нарушены их права, — сами ничего не сделали. А японцы собрали прекрасную команду и сделали замечательный фильм", — сообщил писатель.
По словам источника в министерстве культуры, глава ведомства Владимир Мединский уже позвонил Эдуарду Успенскому и пообещал взять ситуацию под личный контроль.



Качество: WEBRip 720p
Формат: MKV
Продолжительность: 01:20:19
Видео: AVC, 1280 x 720, ~3219 kbps
Звук: AC-3, 2 ch, 256 kbps

Общее
Уникальный идентификатор : 213502537414890381705674204571354446914 (0xA09F17CEE9DABC56B2D8C8A5C60ABC42)
Полное имя : G:\ Чебурашка Cheburashka (2013)\WEBRip 720p\Cheburashka(1) (1).mkv
Формат : Matroska
Версия формата : Version 4 / Version 2
Размер файла : 1,99 Гбайт
Продолжительность : 1 ч. 20 м.
Общий поток : 3546 Кбит/сек
Название фильма : profile.php?mode=viewprofile&u=22488948
Дата кодирования : UTC 2014-06-22 06:54:40
Программа кодирования : mkvmerge v6.9.1 ('Blue Panther') 64bit built on Apr 18 2014 18:23:38
Библиотека кодирования : libebml v1.3.0 + libmatroska v1.4.1

Видео
Идентификатор : 1
Формат : AVC
Формат/Информация : Advanced Video Codec
Профиль формата : Main@L5.1
Параметр CABAC формата : Да
Параметр ReFrames формата : 1 кадр
Идентификатор кодека : V_MPEG4/ISO/AVC
Продолжительность : 1 ч. 20 м.
Битрейт : 3219 Кбит/сек
Ширина : 1280 пикселей
Высота : 720 пикселей
Соотношение сторон : 16:9
Режим частоты кадров : Постоянный
Частота кадров : 25,000 кадров/сек
Цветовое пространство : YUV
Субдискретизация насыщенности : 4:2:0
Битовая глубина : 8 бит
Тип развёртки : Прогрессивная
Бит/(Пиксели*Кадры) : 0.140
Размер потока : 1,81 Гбайт (91%)
Default : Да
Forced : Нет

Аудио
Идентификатор : 2
Формат : AC-3
Формат/Информация : Audio Coding 3
Расширение режима : CM (complete main)
Параметр Endianness формата : Big
Идентификатор кодека : A_AC3
Продолжительность : 1 ч. 20 м.
Вид битрейта : Постоянный
Битрейт : 256 Кбит/сек
Каналы : 2 канала
Расположение каналов : Front: L R
Частота : 48,0 КГц
Битовая глубина : 16 бит
Метод сжатия : С потерями
Размер потока : 147 Мбайт (7%)
Default : Да
Forced : Нет



pic


Информация
Информация Скриншоты Пиры Скачавшие Список файлов
Залил Оценка Просмотров Скачан Файлов
АРХАНГЕЛ 0 602711

Теги
мультфильм, детский, семейный

Похожие раздачи

Чебурашка / Cheburashka (2014) WEBRip 1.03 GB

Больше похожих раздач →

Список комментариев
Комментарии отсутствуют

Добавить комментарий
Внимание
Гости не могут оставлять комментарии, авторизуйтесь.

Панель навигации

ПОПУЛЯРНЫЕ РАЗДАЧИ
скачать торрент Ледокол (2016) WEB-DLRip | iTunesскачать торрент Доктор Стрэндж (2016) TS
скачать торрент Ледокол (2016) WEB-DL 1080p | iTunesскачать торрент Дуэлянт (2016) CAMRip
скачать торрент Отряд самоубийц (2016) BDRip 1080p | Расширeнная версия | iTunesскачать торрент Джейсон Борн (2016) HDTV 720p | Чистый звук
скачать торрент Первый мститель: Противостояние (2016) BDRip | IMAX Edition | iTunesскачать торрент Тарзан. Легенда (2016) HDRip | iTunes
скачать торрент Dark Souls 3: Deluxe Edition (2016) PC | RePack от xatabскачать торрент Люди Икс: Апокалипсис / X-Men: Apocalypse (2016) BDRip 720p | Лицензия

Будь с нами!


Наши друзья 



Информация, расположенная на данном сервере, предназначена исключительно для частного использования и не может быть загружена/перенесена на другой компьютер. Ни владелец сайта, ни хостинг-провайдер, ни любые другие физические или юридические лица не могут нести никакой отвественностиза любое использование материалов данного сайта.

© 2012-2016 TRACK.KG.